<?xml version="1.0" standalone="no"?>
<!DOCTYPE svg PUBLIC "-//W3C//DTD SVG 1.1//EN" "http://www.w3.org/Graphics/SVG/1.1/DTD/svg11.dtd">
<svg xmlns="http://www.w3.org/2000/svg">
<metadata>Generated by Fontastic.me</metadata>
<defs>
<font id="budicon" horiz-adv-x="512">
<font-face font-family="budicon" units-per-em="512" ascent="480" descent="-32"/>
<missing-glyph horiz-adv-x="512" />

<glyph unicode="&#97;" d="M288 0l32 0c167 24 192 160 192 160l0 32-224 0z m32 160l160 0c0-32-96-128-160-128z m-64 352c-141 0-256-115-256-256 0-131 98-238 224-254l0-2 32 0 0 224 256 0 0 32c0 141-115 256-256 256z m-32-477c-39 6-75 22-105 45l105 106z m26 221l0 0 0 0-26 0 0-26-129-128c-39 40-63 94-63 154 0 124 100 224 224 224 124 0 224-100 224-224z"/>
<glyph unicode="&#98;" d="M480 288l-64 0c-1 0-1 0-2 0 0 0 0 0 0 0l2 0 0 32-416 0 0-32 2 0c-1-5-2-11-2-16 0-144 93-208 208-208 84 0 157 26 189 103 6-4 12-7 19-7l64 0c18 0 32 14 32 32l0 64c0 18-14 32-32 32z m-272-192c-84 0-154 36-171 128l344 0c-17-103-88-128-173-128z m175 160l-350 0c0 5-1 10-1 16 0 5 1 11 2 16l348 0c1-5 2-11 2-16 0-6 0-11-1-16z m97-32l0-32-64 0 0 48c0 9 7 16 16 16l32 0c9 0 16-7 16-16z m-160 224l-32 0 0-96 32 0z m-96 32l-32 0 0-128 32 0z m-96-32l-32 0 0-96 32 0z m240-416l-320 0c-9 0-16-7-16-16 0-9 7-16 16-16l320 0c9 0 16 7 16 16 0 9-7 16-16 16z"/>
<glyph unicode="&#99;" d="M419 416c9-13 17-27 22-43 24-15 40-45 40-79 0-50-78-182-78-182 0 0-9 15-20 36-5-9-10-18-15-27 19-33 35-57 35-57 0 0 109 171 109 236 0 59-40 107-93 116z m-163 64c-88 0-160-72-160-160 0-88 160-320 160-320 0 0 160 232 160 320 0 88-72 160-160 160z m-128-165c0 73 57 133 128 133 71 0 128-60 128-133 0-74-128-267-128-267 0 0-128 193-128 267z m-19-203c0 0-78 132-78 182 0 34 16 64 40 79 5 16 13 30 22 43-53-9-93-57-93-116 0-65 109-236 109-236 0 0 16 24 35 57-5 9-10 18-15 27-11-21-20-36-20-36z m147 272c-35 0-64-29-64-64 0-35 29-64 64-64 35 0 64 29 64 64 0 35-29 64-64 64z m0-96c-18 0-32 14-32 32 0 18 14 32 32 32 18 0 32-14 32-32 0-18-14-32-32-32z"/>
<glyph unicode="&#100;" d="M416 512c-42 0-77-27-90-64l-192 0-43 64-27-16 32-48-64 0 0-34 192-254 0-128-48 0c-9 0-16-7-16-16 0-9 7-16 16-16l128 0c9 0 16 7 16 16 0 9-7 16-16 16l-48 0 0 128 125 167c11-5 23-7 35-7 53 0 96 43 96 96 0 53-43 96-96 96z m-176-320l0 0-169 224 47 0 104-156 28 16-94 140 252 0z m176 160c-5 0-10 1-15 2l47 62 0 32-87 0c11 19 31 32 55 32 35 0 64-29 64-64 0-35-29-64-64-64z"/>
<glyph unicode="&#101;" d="M342 320l124 110c7 6 7 16 1 23-5 7-16 7-22 1l-151-134z m-342-32c0-95 52-177 128-221l5-3c10-5 19-10 29-14-1-3-2-6-2-10 0-22 18-40 40-40l112 0c22 0 40 18 40 40 0 4-1 7-2 10 10 4 19 9 29 14l5 3c77 44 128 126 128 221z m320-256l-128 0 0 32 128 0z m50 64l-228 0c-57 34-98 92-107 160l442 0c-9-68-50-126-107-160z m12 392c4 8 2 17-6 22-7 4-17 2-22-6l-108-184 37 0z"/>
<glyph unicode="&#102;" d="M256 480c0 0-160-182-160-288 0-106 72-192 160-192 88 0 160 86 160 192 0 106-160 288-160 288z m0-448c-71 0-128 72-128 160 0 88 128 240 128 240 0 0 128-152 128-240 0-88-57-160-128-160z m-80 176c0 2 0 4 0 5-10-15-16-33-16-53 0-53 43-96 96-96 20 0 38 6 53 16-1 0-3 0-5 0-71 0-128 57-128 128z"/>
<glyph unicode="&#103;" d="M368 288l-96 0c-9 0-16-7-16-16 0-9 7-16 16-16l96 0c9 0 16 7 16 16 0 9-7 16-16 16z m0 96l-96 0c-9 0-16-7-16-16 0-9 7-16 16-16l96 0c9 0 16 7 16 16 0 9-7 16-16 16z m80 128l-352 0c-18 0-32-14-32-32l0-448c0-18 14-32 32-32l352 0c18 0 32 14 32 32l0 448c0 18-14 32-32 32z m-288-480l-48 0c-9 0-16 7-16 16l0 416c0 9 7 16 16 16l48 0z m288 16c0-9-7-16-16-16l-240 0 0 448 240 0c9 0 16-7 16-16z"/>
<glyph unicode="&#104;" d="M479 480c0 0-477 33-445-449 0 0 154-4 281 81l3 2c91 62 168 172 161 366z m-68-31c-48-24-93-58-134-97l-1 0 0-1c-21-19-41-39-59-59l-35 72c78 68 176 82 229 85z m-254-109l37-74c-22-26-42-51-60-75l-2-3c-29-40-52-76-66-99 5 119 42 198 91 251z m-66-277c18 33 37 63 56 92l137-35c-74-44-154-55-193-57z m228 81l-152 39c40 53 80 98 118 135l139-26c-23-67-62-114-105-148z m114 179l-119 22c75 69 133 103 134 104 0 0 1 0 1 0 0-48-6-89-16-126z"/>
<glyph unicode="&#105;" d="M426 388c-21 59-67 114-74 122l0 2-32 0 0-9 0 0 0 0 0-503 32 0 0 224 96 0 0 8 0 0c0 0 4 82-22 156z m-74-132l0 203c17-25 36-58 48-92 14-42 18-83 18-111z m-128 128l-32 0 0 128-32 0 0-128-32 0 0 128-32 0 0-192c0-35 29-64 64-64l0-256 32 0 0 256c35 0 64 29 64 64l0 192-32 0z m0-64c0-18-14-32-32-32l-32 0c-18 0-32 14-32 32l0 32 96 0z"/>
<glyph unicode="&#106;" d="M451 310c-26 43-21 73-21 74 1 6-1 12-6 15-5 4-11 5-16 3-2-1-34-16-47-60-3-11-5-23-6-34-5 8-9 16-12 23-35 74-19 161-18 162 1 6-1 11-5 15-4 4-10 5-16 4-4-2-102-31-125-156-8-45-3-89 4-119-10 7-19 17-28 31-13 20-23 57-23 58-2 6-7 11-13 11-7 1-13-2-16-8-2-2-39-68-39-130 0-115 86-199 207-199 121 0 209 84 209 199 0 48-6 73-29 111z m-180-278c-102 0-175 70-175 167 0 28 10 57 18 79 4-9 9-19 14-28 29-46 74-57 76-58 6-1 12 1 16 5 4 5 5 11 3 17 0 0-25 68-12 136 13 70 53 105 80 120-3-35-4-96 23-153 12-27 40-67 42-69 4-6 11-8 18-6 7 3 11 9 11 16 0 1-3 41 7 75 2 8 5 14 8 19 3-16 10-36 23-58 20-33 25-53 25-95 0-97-74-167-177-167z"/>
<glyph unicode="&#107;" d="M512 144c0 127-90 231-223 239l0 33 47 0c9 0 16 7 16 16 0 9-7 16-16 16l-128 0c-9 0-16-7-16-16 0-9 7-16 16-16l47 0 0-33c-133-8-223-112-223-239 0-5 0-16 0-16l0-32 480 0 0 32c0 0 0 11 0 16z m-35-16l-410 0c0 5-1 11-1 16 0 115 84 208 206 208 122 0 206-93 206-208 0-5-1-11-1-16z m18-64l-446 0c-9 0-17-7-17-16 0-9 8-16 17-16l446 0c9 0 17 7 17 16 0 9-8 16-17 16z"/>
<glyph unicode="&#108;" d="M192 224l-32 0 0-64 32 0z m-32 96l32 0 0 64-32 0z m256 192l-288 0c-18 0-32-14-32-32l0-448c0-18 14-32 32-32l288 0c18 0 32 14 32 32l0 448c0 18-14 32-32 32z m0-464c0-9-7-16-16-16l-256 0c-9 0-16 7-16 16l0 208 288 0z m0 240l-288 0 0 176c0 9 7 16 16 16l256 0c9 0 16-7 16-16z"/>
<glyph unicode="&#109;" d="M432 288l-32 0c-9 0-16-7-16-16 0-9 7-16 16-16l32 0c9 0 16 7 16 16 0 9-7 16-16 16z m-112 96l-224 0c-18 0-32-14-32-32l0-192c0-18 14-32 32-32l224 0c18 0 32 14 32 32l0 192c0 18-14 32-32 32z m0-208c0-9-7-16-16-16l-192 0c-9 0-16 7-16 16l0 160c0 9 7 16 16 16l192 0c9 0 16-7 16-16z m112 176l-32 0c-9 0-16-7-16-16 0-9 7-16 16-16l32 0c9 0 16 7 16 16 0 9-7 16-16 16z m48 96l-448 0c-18 0-32-14-32-32l0-320c0-18 14-32 32-32l448 0c18 0 32 14 32 32l0 320c0 18-14 32-32 32z m0-336c0-9-7-16-16-16l-416 0c-9 0-16 7-16 16l0 288c0 9 7 16 16 16l416 0c9 0 16-7 16-16z"/>
<glyph unicode="&#110;" d="M501 288l-53 160-32 0 0 64-288 0 0-64-32 0-64-192 32 0 0-256 416 0 0 256 32 0z m-341 192l224 0 0-32-224 0z m167-64l42-128-81 0 0 128z m-71 0l0-128-81 0 42 128z m-139 0l11 0 0 0 49 0-42-128-60 0z m331-384l-352 0 0 64 352 0z m0 96l-352 0 0 128 352 0z m-39 160l-42 128 60 0 42-128z"/>
<glyph unicode="&#111;" d="M320 288l64 0 0 32-64 0z m0-64l64 0 0 32-64 0z m0-64l64 0 0 32-64 0z m64 256l-256 0 0-32 256 0z m-128-96l-128 0 0-32 128 0z m-224 192l0-512 32 0 64 48 64-48 64 48 64-48 64 48 64-48 32 0 0 512z m416-480l-64 48-64-48-64 48-64-48-64 48-64-48 0 448 384 0z m-192 160l-128 0 0-32 128 0z m0 64l-128 0 0-32 128 0z"/>
<glyph unicode="&#112;" d="M445 512l-63-64-61 64-66-64-64 64-66-64-59 64-34 0 0-512 448 0 0 512z m3-480l-384 0 0 448 65-64 62 64 63-64 67 64 63-64 64 64z m-187 192l0 72c20-2 38-10 52-25l18 20c-17 17-41 28-70 31l0 30-21 0 0-30c-42-3-73-27-73-61 0-41 37-52 73-62l0-80c-28 3-49 16-63 31l-17-21c17-19 44-33 80-35l0-30 21 0 0 30c55 3 75 35 75 64 0 44-39 56-75 66z m-21 5c-24 7-43 15-43 33 0 20 18 33 43 35z m21-111l0 76c25-7 45-16 45-38 0-16-11-34-45-38z"/>
<glyph unicode="&#113;" d="M509 332l-70 134c-4 8-15 14-24 14l-160 0c0 0-1 0-1 0 0 0 0 0 0 0l-158 0c-9 0-19-6-23-14l-70-131c-4-8-3-20 2-27l239-303c3-3 6-5 10-5 3 0 7 2 9 5l19 23 3 1-1 2 223 274c5 7 6 19 2 27z m-91 104l44-84-77 0z m-29 12l-36-89-66 89z m-135 0l72-96-143 0z m-31 0l-69-92-37 92z m-132-15l32-81-75 0z m-55-113l91 0 0 0 9 0 98-248z m218-212l-86 212 170 0z m19-38l99 250 10 0 0 0 96 0z"/>
<glyph unicode="&#114;" d="M464 384l-121-73c-6 6-14 9-23 9l-128 0c-9 0-17-3-23-9l-121 73c-27 0-48-22-48-48l0-192c0-27 21-48 48-48l121 72c6-5 14-8 23-8l128 0c9 0 17 3 23 8l121-72c26 0 48 21 48 48l0 192c0 26-22 48-48 48z m-304-128l-48 0c-9 0-16-7-16-16 0-9 7-16 16-16l48 0 0-32-128-64 0 224 128-75z m160-52c0-7-7-12-16-12l-96 0c-9 0-16 5-16 12l0 72c0 7 7 12 16 12l96 0c9 0 16-5 16-12z m160-76l-128 64 0 32 48 0c9 0 16 7 16 16 0 9-7 16-16 16l-48 0 0 21 128 75z"/>
<glyph unicode="&#115;" d="M261 272l0 72c20-2 38-10 52-25l18 20c-17 17-41 28-70 31l0 30-21 0 0-30c-42-3-73-27-73-61 0-41 37-52 73-62l0-80c-28 3-49 16-63 31l-17-21c17-19 44-33 80-35l0-30 21 0 0 30c55 3 75 35 75 64 0 44-39 56-75 66z m-21 5c-24 7-43 15-43 33 0 20 18 33 43 35z m21-111l0 76c25-7 45-16 45-38 0-16-11-34-45-38z m-5 346c-141 0-256-115-256-256 0-141 115-256 256-256 141 0 256 115 256 256 0 141-115 256-256 256z m0-480c-124 0-224 100-224 224 0 124 100 224 224 224 124 0 224-100 224-224 0-124-100-224-224-224z"/>
<glyph unicode="&#116;" d="M256 512c-141 0-256-115-256-256 0-141 115-256 256-256 141 0 256 115 256 256 0 141-115 256-256 256z m0-480c-124 0-224 100-224 224 0 124 100 224 224 224 124 0 224-100 224-224 0-124-100-224-224-224z m91 288l38 0c-20 38-59 64-105 64-46 0-85-26-106-64l-30 0c-9 0-16-7-16-16 0-9 7-16 16-16l18 0c-1-8-2-16-2-24 0-3 1-5 1-8l-17 0c-9 0-16-7-16-16 0-9 7-16 16-16l23 0c17-47 61-80 113-80 39 0 74 19 95 48l-45 0c-14-10-31-16-50-16-34 0-63 20-78 48l86 0c9 0 16 7 16 16 0 9-7 16-16 16l-95 0c0 3-1 5-1 8 0 8 2 16 4 24l92 0c9 0 16 7 16 16 0 9-7 16-16 16l-75 0c16 19 40 32 67 32 27 0 51-13 67-32z"/>
<glyph unicode="&#117;" d="M293 168c-18 0-27 13-48 13-6 0-13-1-17-3 13 10 24 23 24 43 0 5-1 10-2 14l40 0 0 18-49 0c-11 15-26 27-26 51 0 26 21 41 46 41 20 0 36-12 42-26l22 13c-12 23-36 36-66 36-40 0-74-28-74-64 0-24 14-38 25-51l-34 0 0-18 47 0c3-6 5-12 5-19 0-20-15-38-43-50l9-20c14 7 28 13 39 13 25 0 29-15 59-15 20 0 35 6 44 15l-12 22c-4-6-17-13-31-13z m-37 344c-141 0-256-115-256-256 0-141 115-256 256-256 141 0 256 115 256 256 0 141-115 256-256 256z m0-480c-124 0-224 100-224 224 0 124 100 224 224 224 124 0 224-100 224-224 0-124-100-224-224-224z"/>
<glyph unicode="&#118;" d="M256 512c-141 0-256-115-256-256 0-141 115-256 256-256 141 0 256 115 256 256 0 141-115 256-256 256z m0-480c-124 0-224 100-224 224 0 124 100 224 224 224 124 0 224-100 224-224 0-124-100-224-224-224z m68 320l-52-85-32 0-52 85-28 0 64-112-48 0 0-16 64 0 0-32-64 0 0-16 64 0 0-64 32 0 0 64 64 0 0 16-64 0 0 32 64 0 0 16-48 0 64 112z"/>
<glyph unicode="&#119;" d="M480 53l-117 447c-1 6-6 10-11 11l0 1-32 0c0 0 0 0 0 0l-128 0c0 0 0 0 0 0l-32 0 0-1c-5-1-10-5-11-11l-117-447c-2-8 3-17 12-19l124-33c8-3 17 2 19 11l69 263 69-263c2-9 11-14 19-11l124 33c9 2 14 11 12 19z m-51 3l-62-16c-9-3-17 2-20 11l-90 349-2 0-90-349c-3-9-11-14-20-11l-62 16c-9 2-14 11-11 20l88 340 48 0 0 32-40 0 8 32 160 0 8-32-40 0 0-32 48 0 88-340c3-9-2-18-11-20z"/>
<glyph unicode="&#120;" d="M352 448c0 0-16-80-96-80-80 0-96 80-96 80l-160-80 32-128 96 16 0-224 256 0 0 224 96-16 32 128z m106-172l-106 12 0-224-192 0 0 224-106-12-15 76 104 52c18-34 54-68 113-68 59 0 95 34 113 68l104-52z"/>
<glyph unicode="&#121;" d="M480 256c0 35-29 64-64 64l-1 0c-7 107-75 192-159 192-84 0-152-85-159-192l-1 0c-35 0-64-29-64-64l0-3c0-1 0-3 0-4l12-70c1-1 1-1 1-1l19-114c0-35 29-64 64-64l256 0c35 0 64 29 64 64l19 114c0 0 0 0 1 1l12 70c0 1 0 3 0 4z m-224 224c67 0 121-70 127-160l-254 0c6 90 60 160 127 160z m160-416c0-18-14-32-32-32l-256 0c-18 0-32 14-32 32l-14 87c45-30 106-55 174-55 68 0 129 25 174 55z m21 123c-41-35-107-61-181-61-74 0-140 26-181 61l-11 69c0 18 14 32 32 32l320 0c18 0 32-14 32-32z m-181 69c-18 0-32-14-32-32 0-18 14-32 32-32 18 0 32 14 32 32 0 18-14 32-32 32z"/>
<glyph unicode="&#122;" d="M480 448l-64 0 0 32c0 18-14 32-32 32l-224 0c-18 0-32-14-32-32l0-32-64 0c-18 0-32-30-32-48l0-368c0-18 14-32 32-32l416 0c18 0 32 14 32 32l0 384c0 18-14 32-32 32z m-320-6l87-87-71-35c-9 0-16 7-16 16z m96-410l-176 0c-9 0-16 7-16 16l0 336c0 9 0 32 32 32l32 0 0-96c0-18 14-32 32-32l96 41z m-86 444c-1 1-2 0-3 1 3 2 6 3 9 3l192 0c3 0 6-1 9-3-1-1-2-1-3-2l-102-101z m214-34l0-106c0-9-7-16-16-16l-71 35z m96-394c0-9-7-16-16-16l-176 0 0 297 96-41c18 0 32 14 32 32l0 96 32 0c32 0 32-23 32-32z m-160 144l128 0 0 32-128 0z"/>
<glyph unicode="&#65;" d="M98 210l112-111 22 22-111 112z m331 128c25 26 25 66 0 91-25 25-66 25-91 0-25-25-25-65 0-91 25-25 66-25 91 0z m-67 69c12 13 32 13 45 0 13-12 13-33 0-45-13-13-33-13-45 0-13 12-13 33 0 45z m-96 105l-257-257c-13-12-13-32 0-45l201-201c12-12 32-12 45 0l257 257 0 246z m212-235l-234-234c-7-6-17-6-23 0l-179 178c-6 7-6 17 0 23l235 234 203 2z"/>
<glyph unicode="&#66;" d="M480 384l0 96c0 18-14 32-32 32l-384-128c-18 0-32-14-32-32l0-320c0-18 14-32 32-32l416 0c18 0 32 14 32 32l0 320c0 18-14 32-32 32z m-48 96c9 0 16-7 16-16l0-80-280 0z m48-320l-64 0 0 32 64 0z m0 64l-96 0 0-96 96 0 0-80c0-9-7-16-16-16l-384 0c-9 0-16 7-16 16l0 288c0 9 7 16 16 16l384 0c9 0 16-7 16-16z"/>
<glyph unicode="&#67;" d="M448 384c0 53-86 96-192 96-106 0-192-43-192-96 0-6 0-288 0-288 0 0 0 0 0 0l0-18c15-45 97-78 192-78 95 0 177 33 192 78 0 0 0 300 0 306z m-32-288c0-35-72-64-160-64-88 0-160 29-160 64l0 43c34-26 93-43 160-43 67 0 126 17 160 43z m0 96c0-35-72-64-160-64-88 0-160 29-160 64l0 43c34-26 93-43 160-43 67 0 126 17 160 43z m0 96c0-35-72-64-160-64-88 0-160 29-160 64l0 43c34-26 93-43 160-43 67 0 126 17 160 43z m-160 32c-88 0-160 29-160 64 0 35 72 64 160 64 88 0 160-29 160-64 0-35-72-64-160-64z"/>
<glyph unicode="&#68;" d="M188 322c0 11 10 18 22 18 18 0 31-13 31-13l11 22c0 0-12 13-35 15l0 20-17 0 0-20c-22-4-38-21-38-42 0-46 68-43 68-68 0-13-10-18-21-18-20 0-35 15-35 15l-14-20c0 0 14-17 40-20l0-19 17 0 0 19c25 3 39 22 39 43 0 47-68 43-68 68z m228-162l0 256c0 18-14 32-32 32l-352 0c-18 0-32-14-32-32l0-256c0-18 14-32 32-32l352 0c18 0 32 14 32 32z m-48 0l-320 0c-9 0-16 7-16 16l0 224c0 9 7 16 16 16l320 0c9 0 16-7 16-16l0-224c0-9-7-16-16-16z m112 192l-32 0 0-32 16 0c9 0 16-7 16-16l0-224c0-9-7-16-16-16l-320 0c-9 0-16 7-16 16l0 16-32 0 0-32c0-18 14-32 32-32l352 0c18 0 32 14 32 32l0 256c0 18-14 32-32 32z"/>
<glyph unicode="&#69;" d="M478 329c2 5 3 10 0 15l-78 160c-3 5-8 7-13 7-1 1-2 1-3 1l-256 0c-1 0-2 0-3-1-5 0-10-2-13-7l-78-160c-3-5-2-10 0-15-1-3-2-6-2-9l0-288c0-18 14-32 32-32l384 0c18 0 32 14 32 32l0 288c0 3-1 6-2 9z m-104 151l62-128-121 0-22 128z m-118 0l32-128-64 0z m-32-160l64 0 0-128-64 0z m-86 160l81 0-22-128-121 0z m310-432c0-9-7-16-16-16l-352 0c-9 0-16 7-16 16l0 256c0 9 7 16 16 16l112 0 0-160 128 0 0 160 112 0c9 0 16-7 16-16z m-256 16l32 0 0 32-32 0z m-96 0l64 0 0 32-64 0z"/>
<glyph unicode="&#70;" d="M375 416c6 9 9 20 9 32 0 35-29 64-64 64-19 0-36-9-48-22-12 13-29 22-48 22-35 0-64-29-64-64 0-12 3-23 9-32l-137 0 0-96 32 0 0-320 416 0 0 320 32 0 0 96z m-55 64c18 0 32-14 32-32 0-18-14-32-32-32-18 0-32 14-32 32 0 18 14 32 32 32z m-96 0c18 0 32-14 32-32 0-18-14-32-32-32-18 0-32 14-32 32 0 18 14 32 32 32z m32-448l-160 0 0 128 160 0z m0 160l-160 0 0 128 160 0z m192-160l-160 0 0 128 160 0z m0 160l-160 0 0 128 160 0z m32 160l-416 0 0 32 416 0z"/>
<glyph unicode="&#71;" d="M416 416l-64 0 0 16c0 44-36 80-80 80l-32 0c-44 0-80-36-80-80l0-16-64 0c-18 0-32-14-32-32l0-352c0-18 14-32 32-32l320 0c18 0 32 14 32 32l0 352c0 18-14 32-32 32z m-224 16c0 26 21 48 48 48l32 0c27 0 48-22 48-48l0-16-128 0z m224-384c0-9-7-16-16-16l-288 0c-9 0-16 7-16 16l0 48 320 0z m0 80l-320 0 0 240c0 9 7 16 16 16l48 0 0-64 32 0 0 64 128 0 0-64 32 0 0 64 48 0c9 0 16-7 16-16z"/>
<glyph unicode="&#72;" d="M288 64c0-35 29-64 64-64 35 0 64 29 64 64 0 35-29 64-64 64-35 0-64-29-64-64z m64 32c18 0 32-14 32-32 0-18-14-32-32-32-18 0-32 14-32 32 0 18 14 32 32 32z m160 337c0 1-1 2-1 2 0 2 0 3-1 5 0 0-1 0-1 0-1 2-2 3-3 4-1 1-1 1-1 1-2 1-3 2-5 2 0 0 0 0-1 1 0 0-1 0-2 0 0 0-1 0-1 0l-3 0c0 0 0 0-1 0l-396 0 0 32 16 0c9 0 16 7 16 16 0 9-7 16-16 16l-96 0c-9 0-16-7-16-16 0-9 7-16 16-16l48 0 0-336c0-9 7-16 16-16l400 0c9 0 16 7 16 16 0 9-7 16-16 16l-384 0 0 33c0 0 348 31 349 31 9-2 18 3 21 12l45 191c1 1 0 2 1 3 0 1 0 1 0 2 0 0 0 1 0 1z m-77-178l-339-31 0 192 378 0z m-339-191c0-35 29-64 64-64 35 0 64 29 64 64 0 35-29 64-64 64-35 0-64-29-64-64z m64 32c18 0 32-14 32-32 0-18-14-32-32-32-18 0-32 14-32 32 0 18 14 32 32 32z"/>
<glyph unicode="&#73;" d="M496 352l-96 0 38 64 42 0 0 32-64-5-54-91-212 0-54 91-64 5 0-32 42 0 38-64-96 0c-9 0-16-7-16-16 0-9 7-16 16-16l19 0 29-288 384 0 29 288 19 0c9 0 16 7 16 16 0 9-7 16-16 16z m-336-288l-64 0-8 64 72 0z m0 96l-76 0-8 64 84 0z m0 96l-88 0-8 64 96 0z m160-192l-128 0 0 64 128 0z m0 96l-128 0 0 64 128 0z m0 96l-128 0 0 64 128 0z m96-192l-64 0 0 64 72 0z m12 96l-76 0 0 64 84 0z m12 96l-88 0 0 64 96 0z"/>
<glyph unicode="&#74;" d="M453 398l-23 23-45-45 23-23z m-357-142l-64 0 0-32 64 0z m63 120l-45 45-23-23 45-45z m129 104l-32 0 0-64 32 0z m-197-398l23-23 45 45-23 23z m165-82l32 0 0 64-32 0z m192 256l0-32 64 0 0 32z m-63-152l45-45 23 23-45 45z m-113 280c-80 0-144-65-144-144 0-80 64-144 144-144 80 0 144 64 144 144 0 79-65 144-144 144z m0-256c-62 0-112 50-112 112 0 62 50 112 112 112 62 0 112-50 112-112 0-62-50-112-112-112z"/>
<glyph unicode="&#75;" d="M386 365c-23 49-72 83-130 83-63 0-117-41-136-98-68-12-120-71-120-142 0-80 64-144 144-144l224 0 0 1c80 4 144 70 144 151 0 75-55 137-126 149z m-18-268l0-1-224 0c-62 0-112 50-112 112 0 62 50 112 112 112 1 0 1 0 2 0 7 54 54 96 110 96 51 0 93-34 107-80 65-2 117-55 117-120 0-64-50-115-112-119z"/>
<glyph unicode="&#76;" d="M480 512l-384 0c-18 0-32-14-32-32l-32 0c-18 0-32-14-32-32l0-384c0-18 14-32 32-32l32 0c0-18 14-32 32-32l384 0c18 0 32 14 32 32l0 448c0 18-14 32-32 32z m-416-448l-16 0c-9 0-16 7-16 16l0 352c0 9 7 16 16 16l16 0z m416-16c0-9-7-16-16-16l-352 0c-9 0-16 7-16 16l0 416c0 9 7 16 16 16l352 0c9 0 16-7 16-16z m-128 172c-22 8-51 5-79-10-40-22-60-63-43-90 17-28 64-32 104-10 37 20 59 55 51 81l-1 225-32 0z m-32-83c-25-12-53-12-61 1-9 12 4 33 29 45 25 12 53 12 61-1 9-13-4-33-29-45z"/>
<glyph unicode="&#77;" d="M512 480l0 2-320-66 0-236c-31 18-79 16-123-9-57-34-84-94-61-135 24-42 89-48 147-15 45 27 71 70 68 107l1 0 0 163 256 55 0-102c-31 18-79 16-123-9-57-34-84-94-61-135 24-42 89-48 147-15 45 27 71 70 68 107l1 0 0 288z m-374-430c-42-25-87-24-102 2-14 25 8 66 50 90 42 25 87 24 102-2 14-25-8-66-50-90z m288 64c-42-25-87-24-102 2-14 25 8 66 50 90 41 25 87 24 102-2 14-25-8-66-50-90z m-202 213l0 60 256 55 0-63z"/>
<glyph unicode="&#78;" d="M320 480l-10 0 0 0 0 0-22 0 0-22 0 0 0 0 0-252c-35 25-93 24-145-7-65-39-96-109-69-157 27-49 101-56 167-17 49 29 79 77 79 119l0 0 0 297 106-81 22 22z m-97-426c-50-30-104-29-122 2-17 32 9 83 60 114 50 30 104 29 122-3 17-31-9-82-60-113z"/>
<glyph unicode="&#79;" d="M256 64c-80 0-148 54-169 128l41 0-64 96-64-96 54 0c22-92 104-160 202-160 74 0 138 38 175 96l-40 0c-33-39-81-64-135-64z m202 224c-22 92-104 160-202 160-74 0-138-38-175-96l40 0c33 39 81 64 135 64 80 0 147-54 169-128l-41 0 64-96 64 96z"/>
<glyph unicode="&#80;" d="M32 224l32 0 0 32-32 0z m0-128l32 0 0 32-32 0z m0 256l32 0 0 32-32 0z m96 32l0-32 352 0 0 32z m0-160l352 0 0 32-352 0z m0-128l352 0 0 32-352 0z"/>
<glyph unicode="&#81;" d="M480 96l-224 352-224-352z m-224 288l171-256-342 0z m208-320l-416 0c-9 0-16-7-16-16 0-9 7-16 16-16l416 0c9 0 16 7 16 16 0 9-7 16-16 16z"/>
<glyph unicode="&#82;" d="M512 224l-320 224 0-122-192 122 0-448 192 122 0-122z m-480-166l0 332 192-123 0 119 232-162-232-163 0 119z"/>
<glyph unicode="&#83;" d="M320 326l0 122-320-224 320-224 0 122 192-122 0 448z m160-268l-192 122 0-119-232 163 232 162 0-119 192 123z"/>
<glyph unicode="&#84;" d="M64 448l0-384 384 0 0 384z m352-352l-320 0 0 320 320 0z"/>
<glyph unicode="&#85;" d="M96 32l128 0 0 448-128 0z m32 416l64 0 0-384-64 0z m160 32l0-448 128 0 0 448z m96-416l-64 0 0 384 64 0z"/>
<glyph unicode="&#86;" d="M176 416c-9 0-16-7-16-16l0-320c0-9 7-16 16-16 9 0 16 7 16 16l0 320c0 9-7 16-16 16z m160 0c-9 0-16-7-16-16l0-320c0-9 7-16 16-16 9 0 16 7 16 16l0 320c0 9-7 16-16 16z"/>
<glyph unicode="&#87;" d="M96 480l0-448 352 224z m32-53l256-171-256-171z"/>
<glyph unicode="&#88;" d="M288 446l0 34-32 0 0-34c-37-7-64-39-64-78 0-39 27-71 64-78l0-258 32 0 0 258c37 7 64 39 64 78 0 39-27 71-64 78z m-16-126c-26 0-48 21-48 48 0 26 21 48 48 48 27 0 48-22 48-48 0-27-22-48-48-48z m176-98l0 258-32 0 0-258c-37-7-64-39-64-78 0-39 27-71 64-78l0-34 32 0 0 34c37 7 64 39 64 78 0 39-27 71-64 78z m-16-126c-26 0-48 21-48 48 0 26 22 48 48 48 26 0 48-22 48-48 0-27-22-48-48-48z m-304 190l0 194-32 0 0-194c-37-7-64-39-64-78 0-39 27-71 64-78l0-98 32 0 0 98c37 7 64 39 64 78 0 39-27 71-64 78z m-16-126c-27 0-48 21-48 48 0 26 21 48 48 48 27 0 48-22 48-48 0-27-21-48-48-48z"/>
<glyph unicode="&#89;" d="M96 352c-18 0-32-14-32-32l0-128c0-18 14-32 32-32l64 0 160-96 0 384-160-96z m192-240l-128 80-48 0c-9 0-16 7-16 16l0 96c0 9 7 16 16 16l48 0 128 80z m64 254l0-32c37-7 64-39 64-78 0-39-27-71-64-78l0-32c54 7 96 54 96 110 0 56-42 103-96 110z"/>
<glyph unicode="&#90;" d="M224 352l-64 0c-18 0-32-14-32-32l0-128c0-18 14-32 32-32l64 0 160-96 0 384z m128-240l-128 80-48 0c-9 0-16 7-16 16l0 96c0 9 7 16 16 16l48 0 128 80z"/>
<glyph unicode="&#48;" d="M64 352c-18 0-32-14-32-32l0-128c0-18 14-32 32-32l64 0 159-96 0 384-159-96z m192-240l-128 80-48 0c-9 0-16 7-16 16l0 96c0 9 7 16 16 16l48 0 128 80 0-288z m250 76l-68 68 68 69c6 6 6 16 0 22-6 7-17 7-23 0l-68-68-68 68c-6 7-16 7-23 0-6-6-6-16 0-22l68-69-68-68c-6-6-6-17 0-23 6-6 16-6 23 0l68 69 69-69c6-6 16-6 22 0 7 6 7 17 0 23z"/>
<glyph unicode="&#49;" d="M384 144c0 62-50 112-112 112-62 0-112-50-112-112 0-62 50-112 112-112 62 0 112 50 112 112z m-112-80c-44 0-80 36-80 80 0 44 36 80 80 80 44 0 80-36 80-80 0-44-36-80-80-80z m173 448l-346 0c-19 0-35-14-35-32l0-448c0-18 16-32 35-32l346 0c20 0 35 14 35 32l0 448c0 18-15 32-35 32z m3-464c0-9-8-16-18-16l-316 0c-10 0-18 7-18 16l0 416c0 9 8 16 18 16l316 0c10 0 18-7 18-16z m-176 400c-44 0-80-36-80-80 0-44 36-80 80-80 44 0 80 36 80 80 0 44-36 80-80 80z m0-128c-26 0-48 21-48 48 0 26 21 48 48 48 27 0 48-22 48-48 0-27-22-48-48-48z"/>
<glyph unicode="&#50;" d="M96 448l-32 0 0-32 32 0z m-32-384l32 0 0 32-32 0z m352 0l32 0 0 32-32 0z m-160 288c-53 0-96-43-96-96 0-53 43-96 96-96 53 0 96 43 96 96 0 53-43 96-96 96z m0-160c-35 0-64 29-64 64 0 35 29 64 64 64 35 0 64-29 64-64 0-35-29-64-64-64z m160 224l32 0 0 32-32 0z m64 96l-448 0c-18 0-32-14-32-32l0-448c0-18 14-32 32-32l448 0c18 0 32 14 32 32l0 448c0 18-14 32-32 32z m0-464c0-9-7-16-16-16l-416 0c-9 0-16 7-16 16l0 416c0 9 7 16 16 16l416 0c9 0 16-7 16-16z m-224 400c-106 0-192-86-192-192 0-106 86-192 192-192 106 0 192 86 192 192 0 106-86 192-192 192z m0-352c-88 0-160 72-160 160 0 88 72 160 160 160 88 0 160-72 160-160 0-88-72-160-160-160z"/>
<glyph unicode="&#51;" d="M392 414c-20 57-73 98-136 98-63 0-116-41-136-98-14-3-24-15-24-30l0-32c0-15 11-27 25-31 8-23 22-44 40-61 0-1 31-228 31-228 0-18 14-32 32-32l64 0c18 0 32 14 32 32 0 0 31 227 31 228 18 17 32 38 40 61 14 4 25 16 25 31l0 32c0 15-10 27-24 30z m-136 66c45 0 83-26 101-64l-202 0c18 38 56 64 101 64z m32-432c0-9-7-16-16-16l-32 0c-9 0-16 7-16 16l-32 192c19-10 41-16 64-16 23 0 45 6 64 16z m-32 208c-45 0-83 26-101 64l202 0c-18-38-56-64-101-64z m112 96l-224 0c-9 0-16 7-16 16 0 9 7 16 16 16l224 0c9 0 16-7 16-16 0-9-7-16-16-16z"/>
<glyph unicode="&#52;" d="M416 288l32 0 0 32-32 0z m-208 64c-79 0-144-65-144-144 0-80 65-144 144-144 80 0 144 64 144 144 0 79-64 144-144 144z m0-32c31 0 58-13 78-32l-156 0c20 19 48 32 78 32z m0-224c-30 0-58 12-78 32l157 0c-21-20-48-32-79-32z m101 64l-202 0c-4 10-7 20-9 32l220 0c-1-12-4-22-9-32z m-211 64c2 11 5 22 9 32l202 0c5-10 8-21 9-32z m350 192l-31 0-397 95c-8 3-17-2-19-11-3-8 2-17 11-19l281-65-229 0c-35 0-64-29-64-64l0-288c0-36 29-64 64-64l384 0c36 0 64 28 64 64l0 288c0 35-28 64-64 64z m32-352c0-18-14-32-32-32l-384 0c-17 0-32 14-32 32l0 288c0 17 15 32 32 32l384 0c18 0 32-15 32-32z m-64 160l32 0 0 32-32 0z"/>
<glyph unicode="&#53;" d="M368 96l64 0c9 0 16 7 16 16l0 64c0 9-7 16-16 16l-64 0c-9 0-16-7-16-16l0-64c0-9 7-16 16-16z m16 64l32 0 0-32-32 0z m-16 64l64 0c9 0 16 7 16 16l0 64c0 9-7 16-16 16l-64 0c-9 0-16-7-16-16l0-64c0-9 7-16 16-16z m16 64l32 0 0-32-32 0z m-272-192l64 0c9 0 16 7 16 16l0 64c0 9-7 16-16 16l-64 0c-9 0-16-7-16-16l0-64c0-9 7-16 16-16z m16 64l32 0 0-32-32 0z m112 64l64 0c9 0 16 7 16 16l0 64c0 9-7 16-16 16l-64 0c-9 0-16-7-16-16l0-64c0-9 7-16 16-16z m16 64l32 0 0-32-32 0z m224 224l-416 0c-18 0-32-14-32-32l0-448c0-18 14-32 32-32l416 0c18 0 32 14 32 32l0 448c0 18-14 32-32 32z m0-464c0-9-7-16-16-16l-384 0c-9 0-16 7-16 16l0 336 416 0z m0 368l-416 0 0 48c0 9 7 16 16 16l384 0c9 0 16-7 16-16z m-368-192l64 0c9 0 16 7 16 16l0 64c0 9-7 16-16 16l-64 0c-9 0-16-7-16-16l0-64c0-9 7-16 16-16z m16 64l32 0 0-32-32 0z m112-192l64 0c9 0 16 7 16 16l0 64c0 9-7 16-16 16l-64 0c-9 0-16-7-16-16l0-64c0-9 7-16 16-16z m16 64l32 0 0-32-32 0z"/>
<glyph unicode="&#54;" d="M448 416l0 96-128 0 0-96-32 0 0-96-64 0 0 96-32 0 0 96-128 0 0-96-32 0 0-416 192 0 0 160 64 0 0-160 192 0 0 416z m-352 64l64 0 0-64-64 0z m96-448l-128 0 0 64 128 0z m0 96l-128 0 0 256 128 0z m96 64l-64 0 0 96 64 0z m64 288l64 0 0-64-64 0z m96-448l-128 0 0 64 128 0z m0 96l-128 0 0 256 128 0z"/>
<glyph unicode="&#55;" d="M472 94l-221 162 221 162c8 5 11 15 6 22-5 8-15 11-23 6l-231-170-72 53c27 13 46 40 46 71 0 44-37 80-83 80-46 0-83-36-83-80 0-42 34-76 77-79l88-65-89-65c-42-3-76-37-76-79 0-44 37-80 83-80 46 0 83 36 83 80 0 31-19 58-46 71l72 53 231-170c8-4 18-2 23 6 5 8 2 17-6 22z m-356 258c-1 0-1 0-1 0-28 0-50 22-50 48 0 26 22 48 50 48 27 0 50-22 50-48 0-26-22-47-49-48z m49-240c0-27-23-48-50-48-28 0-50 21-50 48 0 26 22 48 50 48 27 0 50-22 50-48z"/>
<glyph unicode="&#56;" d="M448 512l-384 0c-18 0-32-14-32-32l0-224c0-18 14-32 32-32l128 0 0-192c0-18 14-32 32-32l64 0c18 0 32 14 32 32l0 192 128 0c18 0 32 14 32 32l0 224c0 18-14 32-32 32z m-352-256l-16 0c-9 0-16 7-16 16l0 192c0 9 7 16 16 16l16 0z m192-48l0-160c0-9-7-16-16-16l-32 0c-9 0-16 7-16 16l0 176 64 0z m96 48l-256 0 0 224 256 0z m64 16c0-9-7-16-16-16l-16 0 0 224 16 0c9 0 16-7 16-16l0-192z"/>
<glyph unicode="&#57;" d="M322 274c18 14 30 37 30 62 0 39-28 71-64 78l0 66-32 0 0-66c-36-7-64-39-64-78 0-25 12-48 30-62l-66-108c-43 29-76 71-91 122l-33 0c16-62 55-115 108-149l-76-123 27-16 76 123c34-17 72-27 113-27 36 0 70 8 101 21l72-117 27 16z m-50 110c26 0 48-22 48-48 0-27-22-48-48-48-26 0-48 21-48 48 0 26 22 48 48 48z m8-256c-34 0-67 8-96 22l67 109c6-2 14-3 21-3 7 0 15 1 21 3l71-115c-26-10-54-16-84-16z"/>
<glyph unicode="&#33;" d="M160 512l0-512 224 0 0 512z m192-96l-96 0 0-32 96 0 0-64-64 0 0-32 64 0 0-64-96 0 0-32 96 0 0-64-64 0 0-32 64 0 0-64-160 0 0 448 160 0z"/>
<glyph unicode="&#34;" d="M512 224c0 141-115 256-256 256-141 0-256-115-256-256 0-11 0-42 0-48l0-96c0-27 21-48 48-48l32 0c26 0 48 21 48 48l0 96c0 26-22 48-48 48l-32 0c-6 0-11-1-16-3 0 1 0 2 0 3 0 124 100 224 224 224 124 0 224-100 224-224 0-1 0-2 0-3-5 2-10 3-16 3l-32 0c-26 0-48-22-48-48l0-96c0-27 22-48 48-48l32 0c26 0 48 21 48 48l0 96c0 6 0 37 0 48z m-464-32l32 0c9 0 16-7 16-16l0-96c0-9-7-16-16-16l-32 0c-9 0-16 7-16 16l0 96c0 9 7 16 16 16z m432-112c0-9-7-16-16-16l-32 0c-9 0-16 7-16 16l0 96c0 9 7 16 16 16l32 0c9 0 16-7 16-16z"/>
<glyph unicode="&#35;" d="M256 512c-141 0-256-115-256-256l0-32 224 0 0-128c0-53 43-96 96-96 53 0 96 43 96 96l-32 0c0-35-29-64-64-64-35 0-64 29-64 64l0 128 256 0 0 32c0 141-115 256-256 256z m-224-256c0 124 100 224 224 224 124 0 224-100 224-224z"/>
<glyph unicode="&#36;" d="M288 320l-192 0c-18 0-32-14-32-32l0-192c0-18 14-32 32-32l192 0c18 0 32 14 32 32l0 192c0 18-14 32-32 32z m0-208c0-9-7-16-16-16l-160 0c-9 0-16 7-16 16l0 160c0 9 7 16 16 16l160 0c9 0 16-7 16-16z m144 208l-64 0c-9 0-16-7-16-16 0-9 7-16 16-16l64 0c9 0 16 7 16 16 0 9-7 16-16 16z m16 64l-153 0 68 67c7 7 7 18 0 24-6 7-17 7-24 0l-83-83-83 84c-7 6-17 6-24 0-6-7-6-18 0-24l68-68-153 0c-35 0-64-29-64-64l0-256c0-35 29-64 64-64l384 0c35 0 64 29 64 64l0 256c0 35-29 64-64 64z m32-320c0-18-14-32-32-32l-384 0c-18 0-32 14-32 32l0 256c0 18 14 32 32 32l384 0c18 0 32-14 32-32z m-48 192l-64 0c-9 0-16-7-16-16 0-9 7-16 16-16l64 0c9 0 16 7 16 16 0 9-7 16-16 16z m-16-96l-32 0c-18 0-32-14-32-32l0-32c0-18 14-32 32-32l32 0c18 0 32 14 32 32l0 32c0 18-14 32-32 32z m0-64l-32 0 0 32 32 0z"/>
<glyph unicode="&#37;" d="M496 288l-112-70 0 6c0 19-9 37-22 48 32 20 54 55 54 96 0 62-50 112-112 112-62 0-112-50-112-112 0-31 13-60 34-80l-59 0c15 17 25 39 25 64 0 53-43 96-96 96-53 0-96-43-96-96 0-29 13-55 33-72-19-11-33-32-33-56l0-128c0-35 29-64 64-64l256 0c35 0 64 29 64 64l0 6 112-70c9 0 16 7 16 16l0 224c0 9-7 16-16 16z m-464 64c0 35 29 64 64 64 35 0 64-29 64-64 0-35-29-64-64-64-35 0-64 29-64 64z m320-160l0-96c0-18-14-32-32-32l-256 0c-18 0-32 14-32 32l0 128c0 18 14 32 32 32l256 0c18 0 32-14 32-32z m-48 96c-44 0-80 36-80 80 0 44 36 80 80 80 44 0 80-36 80-80 0-44-36-80-80-80z m176-208l-96 48 0 64 96 48z"/>
<glyph unicode="&#38;" d="M320 79l29-15 67 80-29 16z m-96 0l29-15 67 80-29 16z m-64 81l-32 0 0-32-32 0 0-32 32 0 0-32 32 0 0 32 32 0 0 32-32 0z m224 288l-256 0c-18 0-32-14-32-32l0-192c0-18 14-32 32-32l256 0c18 0 32 14 32 32l0 192c0 18-14 32-32 32z m0-208c0-9-7-16-16-16l-224 0c-9 0-16 7-16 16l0 160c0 9 7 16 16 16l224 0c9 0 16-7 16-16z m64 272l-384 0c-18 0-32-14-32-32l0-448c0-18 14-32 32-32l384 0c18 0 32 14 32 32l0 448c0 18-14 32-32 32z m0-464c0-9-7-16-16-16l-352 0c-9 0-16 7-16 16l0 416c0 9 7 16 16 16l352 0c9 0 16-7 16-16z"/>
<glyph unicode="&#39;" d="M480 48c0 26-22 48-48 48l-144 0 0 130c72 8 128 68 128 142 0 79-65 144-144 144-79 0-144-65-144-144 0-74 56-134 128-142l0-130-144 0c-27 0-48-22-48-48 0-6 0-16 0-16l0-32 416 0 0 32c0 0 0 10 0 16z m-320 320c0 62 50 112 112 112 62 0 112-50 112-112 0-62-50-112-112-112-62 0-112 50-112 112z m288-336l-352 0 0 16c0 9 7 16 16 16l320 0c9 0 16-7 16-16z"/>
<glyph unicode="&#40;" d="M272 384c-9 0-16-7-16-16l0-64c0-9 7-16 16-16 9 0 16 7 16 16l0 64c0 9-7 16-16 16z m80 64l-64 0 0 48c0 9-7 16-16 16 0 0-1 0-1 0 0 0-1 0-1 0l-92 0c-10 0-18-7-18-16 0-9 8-16 18-16l78 0 0-32-64 0c-53 0-96-43-96-96l0-256c0-53 43-96 96-96l160 0c53 0 96 43 96 96l0 256c0 53-43 96-96 96z m64-352c0-35-29-64-64-64l-160 0c-35 0-64 29-64 64l0 256c0 35 29 64 64 64l160 0c35 0 64-29 64-64z"/>
<glyph unicode="&#41;" d="M480 512l-448 0c-18 0-32-14-32-32l0-352c0-18 14-32 32-32l128 0 0-64-32 0 0-32 256 0 0 32-32 0 0 64 128 0c18 0 32 14 32 32l0 352c0 18-14 32-32 32z m-160-480l-128 0 0 64 128 0z m160 112c0-9-7-16-16-16l-416 0c-9 0-16 7-16 16l0 48 448 0z m0 80l-448 0 0 240c0 9 7 16 16 16l416 0c9 0 16-7 16-16z"/>
<glyph unicode="&#42;" d="M256 64c18 0 32 14 32 32 0 18-14 32-32 32-18 0-32-14-32-32 0-18 14-32 32-32z m96 448l-192 0c-35 0-64-29-64-64l0-384c0-35 29-64 64-64l192 0c35 0 64 29 64 64l0 384c0 35-29 64-64 64z m32-448c0-18-14-32-32-32l-192 0c-18 0-32 14-32 32l0 96 256 0z m0 128l-256 0 0 192 256 0z m0 224l-256 0 0 32c0 18 14 32 32 32l192 0c18 0 32-14 32-32z"/>
<glyph unicode="&#43;" d="M416 512l-416 0 0-512 512 0 0 512z m-288-32l256 0 0-160-256 0z m352-448l-448 0 0 448 64 0 0-192 320 0 0 192 64 0z m-256 320l128 0 0 96-128 0z m32 64l64 0 0-32-64 0z"/>
<glyph unicode="&#44;" d="M224 512c-124 0-224-100-224-224 0-124 100-224 224-224 124 0 224 100 224 224 0 124-100 224-224 224z m0-416c-106 0-192 86-192 192 0 106 86 192 192 192 106 0 192-86 192-192 0-106-86-192-192-192z m283-68l-91 91c-7-8-15-16-23-23l91-91c6-6 17-6 23 0 6 6 6 17 0 23z"/>
<glyph unicode="&#45;" d="M480 448l-243 0c-7 19-24 32-45 32l-80 0c-21 0-38-13-45-32l-35 0c-18 0-32-14-32-32l0-352c0-18 14-32 32-32l448 0c18 0 32 14 32 32l0 352c0 18-14 32-32 32z m-368 0l80 0c9 0 16-7 16-16 0-9-7-16-16-16l-80 0c-9 0-16 7-16 16 0 9 7 16 16 16z m368-368c0-9-7-16-16-16l-416 0c-9 0-16 7-16 16l0 320c0 9 7 16 16 16l19 0c7-19 24-32 45-32l80 0c21 0 38 13 45 32l227 0c9 0 16-7 16-16z m-224 272c-71 0-128-57-128-128 0-71 57-128 128-128 71 0 128 57 128 128 0 71-57 128-128 128z m0-224c-53 0-96 43-96 96 0 53 43 96 96 96 53 0 96-43 96-96 0-53-43-96-96-96z"/>
<glyph unicode="&#46;" d="M192 416l0 64-192 0 0-480 512 0 0 416z m-160 32l128 0 0-32-128 0z m448-416l-448 0 0 352 448 0z m-384 160c0-71 57-128 128-128 71 0 128 57 128 128 0 71-57 128-128 128-71 0-128-57-128-128z m128 96c53 0 96-43 96-96 0-53-43-96-96-96-53 0-96 43-96 96 0 53 43 96 96 96z m224 64l-96 0 0-32 96 0z"/>
<glyph unicode="&#47;" d="M480 416l-80 0-16 32c0 0-14 32-32 32l-192 0c-18 0-32-32-32-32l-16-32-80 0c-18 0-32-14-32-32l0-320c0-18 14-32 32-32l448 0c18 0 32 14 32 32l0 320c0 18-14 32-32 32z m0-336c0-9-7-16-16-16l-416 0c-9 0-16 7-16 16l0 288c0 9 7 16 16 16l81 0c0 1 25 44 25 44 0 0 11 20 25 20l154 0c14 0 25-20 25-20 0 0 25-43 25-44l81 0c9 0 16-7 16-16z m-224 272c-71 0-128-57-128-128 0-71 57-128 128-128 71 0 128 57 128 128 0 71-57 128-128 128z m0-224c-53 0-96 43-96 96 0 53 43 96 96 96 53 0 96-43 96-96 0-53-43-96-96-96z"/>
<glyph unicode="&#58;" d="M320 448l0-224c0-35-29-64-64-64-35 0-64 29-64 64l0 224-128 0 0-224c0-106 86-192 192-192 106 0 192 86 192 192l0 224z m-224-32l64 0 0-64-64 0z m320-192c0-88-72-160-160-160-88 0-160 72-160 160l0 96 64 0 0-96c0-53 43-96 96-96 53 0 96 43 96 96l0 96 64 0z m0 128l-64 0 0 64 64 0z"/>
<glyph unicode="&#59;" d="M288 194l0-98 32 0 0 98c-10-2-21-2-32 0z m-73 43l-215-214 23-23 214 214c-4 4-8 7-12 11-4 4-7 8-10 12z m-21 83l-98 0 0-32 98 0c-2 11-2 22 0 32z m31 63c3 4 8 7 12 10l-88 87-21-21 87-88c3 4 6 8 10 12z m158-158c-4-4-8-7-12-10l88-87 21 21-87 88c-3-4-6-9-10-12z m-95 189c11 2 22 2 32 0l0 98-32 0z m126-94c2-10 2-21 0-32l98 0 0 32z m-21 51l87 88-21 21-88-87c4-3 8-6 12-10 4-4 7-8 10-12z"/>
<glyph unicode="&#60;" d="M512 320l-80 0c-31 75-106 128-192 128-115 0-208-93-208-208 0-115 93-208 208-208 59 0 112 25 150 64l-49 0c-29-20-63-32-101-32-97 0-176 79-176 176 0 97 79 176 176 176 68 0 127-39 156-96l-44 0 64-76c0-2 16-20 16-20 0 0 16 18 16 19z"/>
<glyph unicode="&#61;" d="M304 448c-86 0-159-53-190-128l-82 0 80-96 80 96-44 0c29 57 88 96 156 96 97 0 176-79 176-176 0-97-79-176-176-176-38 0-72 12-101 32l-49 0c38-39 91-64 150-64 115 0 208 93 208 208 0 115-93 208-208 208z"/>
<glyph unicode="&#62;" d="M502 403c13 13 13 33 0 45l-22 23c-13 12-33 12-45 0l-242-241c-2-2-3-5-4-7-25 5-59 2-93-30-53-52 32-112-64-160 0 0 187-15 224 64 10 21 7 43 0 62 2 1 4 2 5 3z m-56 34c6 6 16 6 23 0 6-6 6-16 0-23l-163-162-23 23z m-222-340c-24-36-128-32-128-32 32 32-9 71 32 112 23 23 43 27 57 26 1-7 3-13 8-18l23-23c4-4 9-6 15-8 5-16 7-37-7-57z m26 99c-7-6-17-6-23 0-6 6-6 16 0 22l34 34 22-22z"/>
<glyph unicode="&#63;" d="M384 480l0-438-112 96-112-96 0 438 224 0m0 32l-224 0c-18 0-32-14-32-32l0-448c0-18 14-32 32-32l112 96 112-96c18 0 32 14 32 32l0 448c0 18-14 32-32 32z"/>
<glyph unicode="&#64;" d="M160 112l32 0 0 192-32 0z m336 336l-144 0 0 48c0 9-7 16-16 16l-128 0c-9 0-16-7-16-16l0-48-144 0c-9 0-16-7-16-16 0-9 7-16 16-16l16 0 0-384c0-18 14-32 32-32l352 0c18 0 32 14 32 32l0 384 16 0c9 0 16 7 16 16 0 9-7 16-16 16z m-272 32l96 0 0-32-96 0z m224-80l0-352c0-9-7-16-16-16l-320 0c-9 0-16 7-16 16l0 368 352 0c0 0 0-12 0-16z m-96-288l32 0 0 192-32 0z m-96 0l32 0 0 224-32 0z"/>
<glyph unicode="&#91;" d="M496 448l-144 0 0 48c0 9-7 16-16 16l-128 0c-9 0-16-7-16-16l0-48-144 0c-9 0-16-7-16-16 0-9 7-16 16-16l16 0 0-384c0-18 14-32 32-32l352 0c18 0 32 14 32 32l0 384 16 0c9 0 16 7 16 16 0 9-7 16-16 16z m-272 32l96 0 0-32-96 0z m224-80l0-352c0-9-7-16-16-16l-320 0c-9 0-16 7-16 16l0 368 352 0c0 0 0-12 0-16z"/>
<glyph unicode="&#93;" d="M160 512l0-416 96-96 96 96 0 416z m160-400l-64-64-64 64 0 16 128 0z m0 48l-128 0 0 224 128 0z m0 256l-128 0 0 64 128 0z"/>
<glyph unicode="&#94;" d="M256 512c-53 0-64-43-64-96l0-304c0-53 64-112 64-112 0 0 64 59 64 112l0 304c0 53-11 96-64 96z m32-400c0-35-32-64-32-64 0 0-32 29-32 64l0 208 64 0z m0 240l-64 0 0 32 64 0z m0 64l-64 0c0 35-3 64 32 64 35 0 32-29 32-64z"/>
<glyph unicode="&#95;" d="M415 502c-49 27-82-5-110-51l-17-28-17-28-8-13-154-252c-28-46-1-130-1-130 0 0 91 19 119 66l196 320c28 47 41 90-8 116z m-218-420c-18-31-63-40-63-40 0 0-14 41 4 72l145 237 59-32z m162 265l-59 32 17 28 59-32z m34 55l-59 33c19 31 31 57 64 39 33-17 14-41-5-72z"/>
<glyph unicode="&#96;" d="M406 501c-39 22-90 9-112-28l-13-22-12-20-140-233c-2-3-3-6-4-9l-20-32-1 0 0-2-8-13 7-3-7-123 28-16 107 68 8-4 49 81 0 1 148 247c23 38 10 87-30 108z m-280-466l6 88 71-39z m109 86l-86 48 149 247 85-48z m173 288l-8-14-86 48 8 14c14 22 44 30 68 17 23-13 31-42 18-65z"/>
<glyph unicode="&#123;" d="M448 512l-352 0c-18 0-32-14-32-32l0-64-16 0c-9 0-16-7-16-16 0-9 7-16 16-16l16 0 0-64-16 0c-9 0-16-7-16-16 0-9 7-16 16-16l16 0 0-64-16 0c-9 0-16-7-16-16 0-9 7-16 16-16l16 0 0-64-16 0c-9 0-16-7-16-16 0-9 7-16 16-16l16 0 0-64c0-18 14-32 32-32l352 0c18 0 32 14 32 32l0 448c0 18-14 32-32 32z m-96-480l-240 0c-9 0-16 7-16 16l0 48 16 0c9 0 16 7 16 16 0 9-7 16-16 16l-16 0 0 64 16 0c9 0 16 7 16 16 0 9-7 16-16 16l-16 0 0 64 16 0c9 0 16 7 16 16 0 9-7 16-16 16l-16 0 0 64 16 0c9 0 16 7 16 16 0 9-7 16-16 16l-16 0 0 48c0 9 7 16 16 16l240 0z m96 16c0-9-7-16-16-16l-48 0 0 448 48 0c9 0 16-7 16-16z"/>
<glyph unicode="&#124;" d="M416 320l0 48c0 79-65 144-144 144-79 0-144-65-144-144l0-48c-35 0-64-29-64-64l0-256 416 0 0 256c0 35-29 64-64 64z m-256 48c0 62 50 112 112 112 62 0 112-50 112-112l0-48-224 0z m288-304c0-18-14-32-32-32l-288 0c-18 0-32 14-32 32l0 192c0 18 14 32 32 32l288 0c18 0 32-14 32-32z m-176 160c-9 0-16-7-16-16l0-96c0-9 7-16 16-16 9 0 16 7 16 16l0 96c0 9-7 16-16 16z"/>
<glyph unicode="&#125;" d="M253 172c32 31 51 84 51 135 0 78-20 141-112 141-92 0-112-63-112-141 0-51 19-105 51-136-33-8-99-25-109-33-21-20-32-68-10-96 0 0 12-10 181-10 169 0 179 10 179 10 22 28 11 76-10 96-10 8-76 25-109 34z m82-108l-145 0c0 0-142 0-142 0-28 10-14 51 5 60 15 6 71 23 99 31l4 13 0 22c-28 24-44 72-44 116 0 61 13 110 80 110 67 0 80-49 80-110 0-44-16-93-44-116l0-22 4-14c33-9 90-24 103-30 19-9 25-51 0-60z m155 122c-10 8-75 25-108 33 31 30 50 80 50 127 0 74-20 134-112 134-29 0-50-7-67-17 22-2 40-7 54-16 4 0 8 1 13 1 67 0 80-46 80-103 0-41-17-86-44-108l0-21 4-14c33-9 90-24 103-30 19-8 25-51 0-60l-49 0c2-10 2-21 1-31 79 3 85 9 85 9 22 28 11 76-10 96z"/>
<glyph unicode="&#126;" d="M486 129c-13 13-136 41-160 46 56 30 90 104 90 174 0 90-26 163-144 163-118 0-144-73-144-163 0-70 34-144 90-174-27-6-146-33-160-46-25-23-37-82-12-117 0 0 30-12 227-12 197 0 225 12 225 12 25 35 13 94-12 117z m-22-97l-194 0c0 0-190 0-190 0-35 14-17 69 6 80 19 9 109 34 144 44l6 32 0 13c-47 23-76 88-76 147 0 73 19 132 112 132 93 0 112-59 112-132 0-59-29-124-76-147l0-13 7-34c43-11 131-33 149-42 23-11 31-68 0-80z"/>
<glyph unicode="&#92;" d="M464 512l-416 0c-27 0-48-22-48-48l0-416c0-27 21-48 48-48l416 0c26 0 48 21 48 48l0 416c0 26-22 48-48 48z m16-464c0-9-7-16-16-16l-416 0c-9 0-16 7-16 16l0 416c0 9 7 16 16 16l416 0c9 0 16-7 16-16z m-79 304l-147 0c-7 37-39 64-78 64-44 0-80-36-80-80 0 0 0 0 0 0 0-44 36-80 80-80 39 0 71 27 78 64l147 0c9 0 15 7 15 16 0 9-6 16-15 16z m-225-64c-27 0-48 21-48 48 0 26 21 48 48 48 26 0 48-22 48-48 0-27-22-48-48-48z m160-64c-39 0-71-27-78-64l-147 0c-8 0-15-7-15-16 0-9 7-16 15-16l147 0c7-37 39-64 78-64 44 0 80 36 80 80 0 0 0 0 0 0 0 0 0 0 0 0 0 44-36 80-80 80z m0-128c-26 0-48 21-48 48 0 26 22 48 48 48 26 0 48-22 48-48 0-27-22-48-48-48z"/>
<glyph unicode="&#57344;" d="M512 256c0 34-26 61-59 63-3 11-8 22-13 32 21 25 21 62-3 86-24 24-61 24-86 3-10 5-21 10-32 13-2 33-29 59-63 59-34 0-61-26-63-59-11-3-22-8-32-13-25 21-62 21-86-3-24-24-24-61-3-86-5-10-10-21-13-32-33-2-59-29-59-63 0-34 26-61 59-63 3-11 8-22 13-32-21-25-21-62 3-86 24-24 61-24 86-3 10-5 21-10 32-13 2-33 29-59 63-59 34 0 61 26 63 59 11 3 22 8 32 13 25-21 62-21 86 3 24 24 24 61 3 86 5 10 10 21 13 32 33 2 59 29 59 63z m-83-32c-5-25-15-47-28-67l13-14c13-13 13-33 0-45-12-13-32-13-45 0l-14 13c-20-13-42-23-67-28l0-19c0-18-14-32-32-32-18 0-32 14-32 32l0 19c-25 5-47 15-67 28l-14-13c-13-13-33-13-45 0-13 12-13 32 0 45l13 14c-13 20-23 42-28 67l-19 0c-18 0-32 14-32 32 0 18 14 32 32 32l19 0c5 25 15 47 28 67l-13 14c-13 13-13 33 0 45 12 13 32 13 45 0l14-13c20 13 42 23 67 28l0 19c0 18 14 32 32 32 18 0 32-14 32-32l0-19c25-5 47-15 67-28l14 13c13 13 33 13 45 0 13-12 13-32 0-45l-13-14c13-20 24-42 28-67l19 0c18 0 32-14 32-32 0-18-14-32-32-32z m-173 128c-53 0-96-43-96-96 0-53 43-96 96-96 53 0 96 43 96 96 0 53-43 96-96 96z m0-160c-35 0-64 29-64 64 0 35 29 64 64 64 35 0 64-29 64-64 0-35-29-64-64-64z"/>
<glyph unicode="&#57345;" d="M465 397l-62-62-57 12-11 56 62 62c-54 26-120 17-165-27-40-40-51-98-34-148l-148-148c-25-25-25-66 0-91 25-25 66-25 91 0l148 148c51-17 108-6 149 34 44 45 53 111 27 164z m-50-141c-36-36-91-42-133-19l-164-163c-12-13-33-13-45 0-13 12-13 33 0 45l163 163c-23 43-17 97 19 133 22 22 50 32 79 33l-22-22 0-91 23-22 91 0 22 21c-1-28-12-57-33-78z"/>
<glyph unicode="&#57346;" d="M432 192c-28 0-53-15-67-37l-174 72c0 5 1 9 1 13 0 2-1 5-1 7l174 77c14-22 39-36 67-36 44 0 80 36 80 80 0 44-36 80-80 80-44 0-80-36-80-80 0-5 1-9 1-14l-171-76c-14 25-40 42-70 42-44 0-80-36-80-80 0-44 36-80 80-80 28 0 53 15 67 37l174-73c0-4-1-8-1-12 0-44 36-80 80-80 44 0 80 36 80 80 0 44-36 80-80 80z m0 224c26 0 48-22 48-48 0-26-22-48-48-48-26 0-48 22-48 48 0 26 22 48 48 48z m-320-224c-27 0-48 21-48 48 0 26 21 48 48 48 26 0 48-22 48-48 0-27-22-48-48-48z m320-128c-26 0-48 21-48 48 0 26 22 48 48 48 26 0 48-22 48-48 0-27-22-48-48-48z"/>
<glyph unicode="&#57347;" d="M122 349c-7 5-18 5-25 0l-92-102c-7-6-7-14 0-19 2-2 92-96 92-96 7-5 18-5 25 0 7 5 7 13 0 19l-81 89 81 90c7 5 7 14 0 19z m385-96c-3 2-93 96-93 96-7 5-18 5-25 0-7-5-7-14 0-19l82-90-82-89c-7-6-7-14 0-19 7-5 18-5 25 0l93 102c7 5 7 14 0 19z m-131 193c-8 4-18 2-22-6l-225-416c-4-8-1-18 6-22 8-4 18-2 22 6l225 416c4 8 1 17-6 22z"/>
<glyph unicode="&#57348;" d="M226 217l23-23 69 69-23 23z m23-69l-69-69c-19-19-50-19-69 0-19 19-19 50 0 69l115 115c-25 3-50-4-69-23l-69-69c-32-31-32-83 0-115 32-31 83-31 115 0l69 69c18 19 26 45 22 69z m207 276c-32 32-84 32-115 0l-69-69c-19-19-26-44-23-69l115 115c19 19 50 19 69 0 19-19 19-50 0-69l-115-114c24-4 50 3 69 22l69 69c31 32 31 83 0 115z"/>
<glyph unicode="&#57349;" d="M210 94l-46-47c-20-19-51-19-70 0l-47 47c-19 19-19 50 0 70l151 151c20 19 51 19 70 0l35-35c3-3 7-5 12-5 4 0 8 2 11 5 7 6 7 17 0 23l-35 35c-32 32-84 32-116 0l-151-151c-32-32-32-84 0-117l46-46c33-32 85-32 117 0l11 12 35 34c7 7 7 17 0 24-6 6-17 6-23 0z m277 350l-43 43c-32 33-86 33-118 2l-46-47c-7-6-7-16 0-23 3-3 7-5 11-5 5 0 9 2 12 5l46 46c19 19 53 18 72-1l43-43c20-19 20-53 1-72l-145-145c-20-20-59-22-77-4l-20 20c0 0-1 1-1 2l0 0-12 11c-6 7-17 7-23 0-7-6-7-17 0-23l35-35c1-1 2-1 3-2 30-25 80-24 112 3l1-1c1 1 2 3 3 4 1 0 2 1 2 1l146 146c31 32 31 86-2 118z"/>
<glyph unicode="&#57350;" d="M256 112l32 0 0 32-32 0z m16 368l-240-448 480 0z m0-48l192-368-384 0z m0-112c-9 0-16-7-16-16l0-112c0-9 7-16 16-16 9 0 16 7 16 16l0 112c0 9-7 16-16 16z"/>
<glyph unicode="&#57351;" d="M261 133c3-4 7-5 11-5 0 0 0 0 1 0 4 0 7 2 10 4 0 1 0 0 0 1l96 112c7 6 7 16 0 22-6 7-16 7-22 0l-69-80 0 245c0 9-7 16-16 16-9 0-16-7-16-16l0-245-69 80c-6 7-16 7-22 0-7-6-7-16 0-23z m235 59c-9 0-16-7-16-16l0-112-416 0 0 112c0 9-7 16-16 16-9 0-16-7-16-16l0-128c0-9 7-16 16-16l448 0c9 0 16 7 16 16l0 128c0 9-7 16-16 16z"/>
<glyph unicode="&#57352;" d="M187 309l69 80 0-245c0-9 7-16 16-16 9 0 16 7 16 16l0 245 69-80c6-7 16-7 22 0 7 6 7 16 0 22l-96 112c0 1 0 0 0 1-3 2-6 4-10 4 0 0 0 0-1 0-4 0-8-1-11-5l-96-112c-7-6-7-16 0-22 6-7 16-7 22 0z m309-117c-9 0-16-7-16-16l0-112-416 0 0 112c0 9-7 16-16 16-9 0-16-7-16-16l0-128c0-9 7-16 16-16l448 0c9 0 16 7 16 16l0 128c0 9-7 16-16 16z"/>
<glyph unicode="&#57353;" d="M405 224l22 0c11 0 21 10 21 21l0 22c0 11-10 21-21 21l-22 0c-11 0-21-10-21-21l0-22c0-11 10-21 21-21z m0-160l22 0c11 0 21 10 21 21l0 22c0 11-10 21-21 21l-22 0c-11 0-21-10-21-21l0-22c0-11 10-21 21-21z m22 384l-22 0c-11 0-21-10-21-21l0-22c0-11 10-21 21-21l22 0c11 0 21 10 21 21l0 22c0 11-10 21-21 21z m53 64l-416 0c-18 0-32-14-32-32l0-448c0-18 14-32 32-32l416 0c18 0 32 14 32 32l0 448c0 18-14 32-32 32z m0-160l-368 0c-9 0-16-7-16-16 0-9 7-16 16-16l368 0 0-128-368 0c-9 0-16-7-16-16 0-9 7-16 16-16l368 0 0-112c0-9-7-16-16-16l-384 0c-9 0-16 7-16 16l0 416c0 9 7 16 16 16l384 0c9 0 16-7 16-16z"/>
<glyph unicode="&#57354;" d="M480 288c0 124-100 224-224 224-124 0-224-100-224-224 0-95 60-176 144-209l-10-47-54 0c-9 0-16-7-16-16 0-9 7-16 16-16l288 0c9 0 16 7 16 16 0 9-7 16-16 16l-54 0-10 47c84 33 144 114 144 209z m-288-256l13 38c16-3 33-6 51-6 18 0 35 3 51 6l13-38z m64 64c-106 0-192 86-192 192 0 106 86 192 192 192 106 0 192-86 192-192 0-106-86-192-192-192z m0 288c-53 0-96-43-96-96 0-53 43-96 96-96 53 0 96 43 96 96 0 53-43 96-96 96z m0-160c-35 0-64 29-64 64 0 35 29 64 64 64 35 0 64-29 64-64 0-35-29-64-64-64z"/>
<glyph unicode="&#57355;" d="M480 512l-448 0c-18 0-32-14-32-32l0-448c0-18 14-32 32-32l448 0c18 0 32 14 32 32l0 448c0 18-14 32-32 32z m0-464c0-9-7-16-16-16l-416 0c-9 0-16 7-16 16l0 120 123 110 123-84 2-2 0 0 0 0 24 23-1 1 177 177z m0 391l-204-204-122 83-2 2 0-1 0 1-8-7-112-101 0 252c0 9 7 16 16 16l416 0c9 0 16-7 16-16z"/>
<glyph unicode="&#57356;" d="M80 192l0-32c53 0 96-43 96-96l32 0c0 71-57 128-128 128z m24 256c-8 0-16-1-24-1l0-32c5 0 11 1 16 1 186 0 336-150 336-336 0-5-1-11-1-16l32 0c0 8 1 16 1 24 0 199-161 360-360 360z m-8-128c-5 0-11 0-16-1l0-31c3 0 5 0 8 0 119 0 216-97 216-216 0-3 0-5 0-8l31 0c1 5 1 11 1 16 0 133-107 240-240 240z"/>
<glyph unicode="&#57357;" d="M32 0l96 0 0 256-96 0z m32 224l32 0 0-192-32 0z m352 256l0-480 96 0 0 480z m64-448l-32 0 0 416 32 0z m-192-32l96 0 0 352-96 0z m32 320l32 0 0-288-32 0z m-160-320l96 0 0 416-96 0z m32 384l32 0 0-352-32 0z"/>
<glyph unicode="&#57358;" d="M96 384l32 0 0 32-32 0z m120-288l56 56 56-56 24 24-56 56 56 56-24 24-56-56-56 56-24-24 56-56-56-56z m-56 288l32 0 0 32-32 0z m336 96l-448 0c-9 0-16-7-16-16l0-448c0-9 7-16 16-16l448 0c9 0 16 7 16 16l0 448c0 9-7 16-16 16z m-16-432c0-9-7-16-16-16l-384 0c-9 0-16 7-16 16l0 272 416 0z m0 304l-416 0 0 80c0 9 7 16 16 16l384 0c9 0 16-7 16-16z m-256 32l32 0 0 32-32 0z"/>
<glyph unicode="&#57359;" d="M96 384l32 0 0 32-32 0z m152-288l0 0 136 136-24 24-114-114-62 50-24-24 88-72z m248 384l-448 0c-9 0-16-7-16-16l0-448c0-9 7-16 16-16l448 0c9 0 16 7 16 16l0 448c0 9-7 16-16 16z m-16-432c0-9-7-16-16-16l-384 0c-9 0-16 7-16 16l0 272 416 0z m0 304l-416 0 0 80c0 9 7 16 16 16l384 0c9 0 16-7 16-16z m-256 32l32 0 0 32-32 0z m-64 0l32 0 0 32-32 0z"/>
<glyph unicode="&#57360;" d="M256 96l32 0 0 64 64 0 0 32-64 0 0 64-32 0 0-64-64 0 0-32 64 0z m-32 288l32 0 0 32-32 0z m272 96l-448 0c-9 0-16-7-16-16l0-448c0-9 7-16 16-16l448 0c9 0 16 7 16 16l0 448c0 9-7 16-16 16z m-16-432c0-9-7-16-16-16l-384 0c-9 0-16 7-16 16l0 272 416 0z m0 304l-416 0 0 80c0 9 7 16 16 16l384 0c9 0 16-7 16-16z m-320 32l32 0 0 32-32 0z m-64 0l32 0 0 32-32 0z"/>
<glyph unicode="&#57361;" d="M352 192l-160 0 0-32 160 0z m-256 192l32 0 0 32-32 0z m128 0l32 0 0 32-32 0z m-64 0l32 0 0 32-32 0z m336 96l-448 0c-9 0-16-7-16-16l0-448c0-9 7-16 16-16l448 0c9 0 16 7 16 16l0 448c0 9-7 16-16 16z m-16-432c0-9-7-16-16-16l-384 0c-9 0-16 7-16 16l0 272 416 0z m0 304l-416 0 0 80c0 9 7 16 16 16l384 0c9 0 16-7 16-16z"/>
<glyph unicode="&#57362;" d="M96 384l32 0 0 32-32 0z m400 96l-448 0c-9 0-16-7-16-16l0-448c0-9 7-16 16-16l448 0c9 0 16 7 16 16l0 448c0 9-7 16-16 16z m-16-432c0-9-7-16-16-16l-384 0c-9 0-16 7-16 16l0 272 416 0z m0 304l-416 0 0 80c0 9 7 16 16 16l384 0c9 0 16-7 16-16z m-256 32l32 0 0 32-32 0z m-64 0l32 0 0 32-32 0z"/>
<glyph unicode="&#57363;" d="M256 512c-141 0-256-115-256-256 0-141 115-256 256-256 141 0 256 115 256 256 0 141-115 256-256 256z m-64-256l128 0c0-36-2-69-7-99-18 2-37 3-57 3-20 0-39-1-57-3-5 30-7 63-7 99z m1 32c1 24 3 46 6 67 18-2 37-3 57-3 20 0 39 1 57 3 3-21 5-43 6-67z m245 98c20-29 34-62 39-98l-126 0c-1 25-4 48-7 71 38 5 70 15 94 27z m42-130c0-48-16-92-42-129-24 12-56 21-94 27 5 31 8 65 8 102z m-54 144l-27 0c-17-5-38-9-61-11-8 34-19 64-32 85 48-11 90-38 120-74z m-170 80c21 0 40-37 52-94-17-1-34-2-52-2-18 0-35 1-52 2 12 57 31 94 52 94z m-50-6c-13-21-24-51-32-85-23 2-44 6-61 11l-27 0c30 36 72 63 120 74z m-132-88c24-12 56-22 94-28-3-22-6-45-7-70l-126 0c5 36 19 69 39 98z m86-130c0-37 3-71 8-102-38-6-70-15-94-27-26 37-42 81-42 129z m-75-144l26 0c18 5 39 9 63 11 8-34 19-64 32-85-48 11-90 37-121 74z m171-80c-22 0-40 37-52 94 17 1 34 2 52 2 18 0 35-1 52-2-12-57-31-94-52-94z m50 6c13 21 24 51 32 85 24-2 45-6 63-11l26 0c-31-37-73-63-121-74z"/>
<glyph unicode="&#57364;" d="M496 32l-48 0-38 96-154 384-192-480-48 0c-9 0-16-7-16-16 0-9 7-16 16-16l480 0c9 0 16 7 16 16 0 9-7 16-16 16z m-240 416l37-96-74 0z m-48-125l0-3 96 0 0 3 14-35-124 0z m-26-67l148 0 24-64-196 0z m-37-96l222 0 12-32-246 0z m-49-128l25 64 270 0 25-64z"/>
<glyph unicode="&#57365;" d="M512 499c-1 1 0 1-1 1 0 1 0 1 0 2-1 1-1 2-2 3-1 1-1 2-2 2-1 1-1 2-2 2-1 1-2 1-3 2-1 0-1 0-2 1 0 0-1 0-1 0-1 0-2 0-3 0-1 0-2 0-3 0-1 0-1 0-1 0l-479-183c-4-1-8-3-10-7-1 0-1-1-1-1-1-1-1-2-1-3-1-1-1-3-1-4 0 0 0 0 0 0 0-1 0-1 0-1 0-1 0-3 0-4 1-1 1-1 1-2 0 0 0 0 0 0 3-6 9-10 15-10 0 0 0 0 0 0l238-43 43-238c0 0 0 0 0 0 0-6 4-12 10-15 0 0 0 0 0 0 1 0 1 0 2 0 1-1 2-1 4-1 0 0 0 0 0 0 1 0 1 0 1 0 1 0 3 1 4 1 1 0 2 1 2 1 1 0 2 1 2 1 4 2 6 6 7 10l183 479c0 0 0 1 0 1 0 1 0 2 0 3 0 1 0 2 0 3z m-193-423l-35 191c0 5-2 9-5 12-3 3-7 5-12 5l-191 35 392 149z"/>
<glyph unicode="&#57366;" d="M0 0l128 0 0 128-128 0z m32 96l64 0 0-64-64 0z m-32 96l128 0 0 128-128 0z m32 96l64 0 0-64-64 0z m352 224l0-128 128 0 0 128z m96-96l-64 0 0 64 64 0z m-288-224l128 0 0 128-128 0z m32 96l64 0 0-64-64 0z m-32 96l128 0 0 128-128 0z m32 96l64 0 0-64-64 0z m160-480l128 0 0 128-128 0z m32 96l64 0 0-64-64 0z m-224-96l128 0 0 128-128 0z m32 96l64 0 0-64-64 0z m-224 288l128 0 0 128-128 0z m32 96l64 0 0-64-64 0z m352-288l128 0 0 128-128 0z m32 96l64 0 0-64-64 0z"/>
<glyph unicode="&#57367;" d="M346 256l124 125c13 12 13 32 0 45l-45 45c-12 12-32 12-45 0l-124-124-125 124c-12 12-32 12-45 0l-45-45c-12-13-12-33 0-45l124-125-124-124c-12-13-12-33 0-45l45-45c13-13 33-13 45 0l125 124 124-124c13-13 33-13 45 0l46 45c12 12 12 32 0 45z m91-158l-23-23c-6-6-16-6-23 0l-135 136-136-136c-6-6-16-6-22 0l-23 23c-6 6-6 16 0 23l136 135-136 136c-6 6-6 16 0 22l23 23c6 6 16 6 22 0l136-136 135 136c7 6 17 6 23 0l23-23c6-6 6-16 0-22l-136-136 136-135c6-7 6-17 0-23z"/>
<glyph unicode="&#57368;" d="M475 381l-80 79c-6 6-17 6-23 0l-219-228-57 55c-6 6-16 6-22 0l-69-67c-7-6-7-16 0-22l149-146c6-6 17-6 23 0l298 307c7 6 7 16 0 22z m-310-295l-126 123 46 45 57-56c7-6 17-6 23 0l219 228 57-56z"/>
<glyph unicode="&#57369;" d="M480 320l-448 0c-18 0-32-14-32-32l0-64c0-18 14-32 32-32l448 0c18 0 32 14 32 32l0 64c0 18-14 32-32 32z m0-80c0-9-7-16-16-16l-416 0c-9 0-16 7-16 16l0 32c0 9 7 16 16 16l416 0c9 0 16-7 16-16z"/>
<glyph unicode="&#57370;" d="M480 320l-160 0 0 160c0 18-14 32-32 32l-64 0c-18 0-32-14-32-32l0-160-160 0c-18 0-32-14-32-32l0-64c0-18 14-32 32-32l160 0 0-160c0-18 14-32 32-32l64 0c18 0 32 14 32 32l0 160 160 0c18 0 32 14 32 32l0 64c0 18-14 32-32 32z m0-80c0-9-7-16-16-16l-176 0 0-176c0-9-7-16-16-16l-32 0c-9 0-16 7-16 16l0 176-176 0c-9 0-16 7-16 16l0 32c0 9 7 16 16 16l176 0 0 176c0 9 7 16 16 16l32 0c9 0 16-7 16-16l0-176 176 0c9 0 16-7 16-16z"/>
<glyph unicode="&#57371;" d="M480 320l-448 0c-18 0-32-14-32-32l0-64c0-18 14-32 32-32l448 0c18 0 32 14 32 32l0 64c0 18-14 32-32 32z m0-80c0-9-7-16-16-16l-416 0c-9 0-16 7-16 16l0 32c0 9 7 16 16 16l416 0c9 0 16-7 16-16z m0-80l-448 0c-18 0-32-14-32-32l0-64c0-18 14-32 32-32l448 0c18 0 32 14 32 32l0 64c0 18-14 32-32 32z m0-80c0-9-7-16-16-16l-416 0c-9 0-16 7-16 16l0 32c0 9 7 16 16 16l416 0c9 0 16-7 16-16z m0 400l-448 0c-18 0-32-14-32-32l0-64c0-18 14-32 32-32l448 0c18 0 32 14 32 32l0 64c0 18-14 32-32 32z m0-80c0-9-7-16-16-16l-416 0c-9 0-16 7-16 16l0 32c0 9 7 16 16 16l416 0c9 0 16-7 16-16z"/>
<glyph unicode="&#57372;" d="M192 224l-128 0c-18 0-32-14-32-32l0-128c0-18 14-32 32-32l128 0c18 0 32 14 32 32l0 128c0 18-14 32-32 32z m0-144c0-9-7-16-16-16l-96 0c-9 0-16 7-16 16l0 96c0 9 7 16 16 16l96 0c9 0 16-7 16-16z m0 400l-128 0c-18 0-32-14-32-32l0-128c0-18 14-32 32-32l128 0c18 0 32 14 32 32l0 128c0 18-14 32-32 32z m0-144c0-9-7-16-16-16l-96 0c-9 0-16 7-16 16l0 96c0 9 7 16 16 16l96 0c9 0 16-7 16-16z m256 144l-128 0c-18 0-32-14-32-32l0-128c0-18 14-32 32-32l128 0c18 0 32 14 32 32l0 128c0 18-14 32-32 32z m0-144c0-9-7-16-16-16l-96 0c-9 0-16 7-16 16l0 96c0 9 7 16 16 16l96 0c9 0 16-7 16-16z m0-112l-128 0c-18 0-32-14-32-32l0-128c0-18 14-32 32-32l128 0c18 0 32 14 32 32l0 128c0 18-14 32-32 32z m0-144c0-9-7-16-16-16l-96 0c-9 0-16 7-16 16l0 96c0 9 7 16 16 16l96 0c9 0 16-7 16-16z"/>
<glyph unicode="&#57373;" d="M64 64l160 0 0 192-160 0z m32 160l96 0 0-128-96 0z m-32 64l384 0 0 160-384 0z m32 128l320 0 0-96-320 0z m384 96l-448 0c-18 0-32-14-32-32l0-448c0-18 14-32 32-32l448 0c18 0 32 14 32 32l0 448c0 18-14 32-32 32z m0-464c0-9-7-16-16-16l-416 0c-9 0-16 7-16 16l0 416c0 9 7 16 16 16l416 0c9 0 16-7 16-16z m-192 16l160 0 0 192-160 0z m32 160l96 0 0-128-96 0z"/>
<glyph unicode="&#57374;" d="M448 512l-384 0c-35 0-64-29-64-64l0-384c0-35 29-64 64-64l384 0c35 0 64 29 64 64l0 384c0 35-29 64-64 64z m-96-480l-288 0c-18 0-32 14-32 32l0 384c0 18 14 32 32 32l288 0z m128 32c0-18-14-32-32-32l-64 0 0 448 64 0c18 0 32-14 32-32z"/>
<glyph unicode="&#57375;" d="M448 512l-384 0c-35 0-64-29-64-64l0-384c0-35 29-64 64-64l384 0c35 0 64 29 64 64l0 384c0 35-29 64-64 64z m-320-480l-64 0c-18 0-32 14-32 32l0 384c0 18 14 32 32 32l64 0z m352 32c0-18-14-32-32-32l-288 0 0 448 288 0c18 0 32-14 32-32z"/>
<glyph unicode="&#57376;" d="M448 512l-384 0c-35 0-64-29-64-64l0-384c0-35 29-64 64-64l384 0c35 0 64 29 64 64l0 384c0 35-29 64-64 64z m-96-480l-288 0c-18 0-32 14-32 32l0 160 320 0z m0 224l-320 0 0 192c0 18 14 32 32 32l288 0z m128-192c0-18-14-32-32-32l-64 0 0 448 64 0c18 0 32-14 32-32z"/>
<glyph unicode="&#57377;" d="M448 512l-384 0c-35 0-64-29-64-64l0-384c0-35 29-64 64-64l384 0c35 0 64 29 64 64l0 384c0 35-29 64-64 64z m-320-480l-64 0c-18 0-32 14-32 32l0 384c0 18 14 32 32 32l64 0z m352 32c0-18-14-32-32-32l-288 0 0 192 320 0z m0 192l-320 0 0 224 288 0c18 0 32-14 32-32z"/>
<glyph unicode="&#57378;" d="M448 512l-384 0c-35 0-64-29-64-64l0-384c0-35 29-64 64-64l384 0c35 0 64 29 64 64l0 384c0 35-29 64-64 64z m-96-480l-288 0c-18 0-32 14-32 32l0 128 320 0z m0 192l-320 0 0 128 320 0z m128-160c0-18-14-32-32-32l-64 0 0 320 96 0z m0 320l-448 0 0 64c0 18 14 32 32 32l384 0c18 0 32-14 32-32z"/>
<glyph unicode="&#57379;" d="M448 512l-384 0c-35 0-64-29-64-64l0-384c0-35 29-64 64-64l384 0c35 0 64 29 64 64l0 384c0 35-29 64-64 64z m-320-480l-64 0c-18 0-32 14-32 32l0 288 96 0z m352 32c0-18-14-32-32-32l-288 0 0 160 320 0z m0 160l-320 0 0 128 320 0z m0 160l-448 0 0 64c0 18 14 32 32 32l384 0c18 0 32-14 32-32z"/>
<glyph unicode="&#57380;" d="M448 512l-384 0c-35 0-64-29-64-64l0-384c0-35 29-64 64-64l384 0c35 0 64 29 64 64l0 384c0 35-29 64-64 64z m-96-480l-288 0c-18 0-32 14-32 32l0 288 320 0z m128 32c0-18-14-32-32-32l-64 0 0 320 96 0z m0 320l-448 0 0 64c0 18 14 32 32 32l384 0c18 0 32-14 32-32z"/>
<glyph unicode="&#57381;" d="M448 512l-384 0c-35 0-64-29-64-64l0-384c0-35 29-64 64-64l384 0c35 0 64 29 64 64l0 384c0 35-29 64-64 64z m-320-480l-64 0c-18 0-32 14-32 32l0 288 96 0z m352 32c0-18-14-32-32-32l-288 0 0 320 320 0z m0 320l-448 0 0 64c0 18 14 32 32 32l384 0c18 0 32-14 32-32z"/>
<glyph unicode="&#57382;" d="M448 512l-384 0c-35 0-64-29-64-64l0-384c0-35 29-64 64-64l384 0c35 0 64 29 64 64l0 384c0 35-29 64-64 64z m-224-480l-160 0c-18 0-32 14-32 32l0 384c0 18 14 32 32 32l160 0z m256 32c0-18-14-32-32-32l-192 0 0 448 192 0c18 0 32-14 32-32z"/>
<glyph unicode="&#57383;" d="M379 347c-6 6-16 6-22 0l-85-85-85 85c-6 6-16 6-22 0-7-6-7-16 0-22l85-85-85-85c-7-6-7-16 0-22 6-7 16-7 22 0l85 85 85-85c6-7 16-7 22 0 7 6 7 16 0 22l-85 85 85 85c7 6 7 16 0 22z m69 133l-352 0c-35 0-64-29-64-64l0-352c0-35 29-64 64-64l352 0c35 0 64 29 64 64l0 352c0 35-29 64-64 64z m32-416c0-18-14-32-32-32l-352 0c-18 0-32 14-32 32l0 352c0 18 14 32 32 32l352 0c18 0 32-14 32-32z"/>
<glyph unicode="&#57384;" d="M387 347l-139-181-90 85c-7 7-18 7-25 0-7-6-7-17 0-23 0 0 103-95 104-95 3-4 7-5 11-5 4 0 8 1 11 5 1 0 152 191 152 191 7 7 7 17 0 23-7 7-17 7-24 0z m61 133l-352 0c-35 0-64-29-64-64l0-352c0-35 29-64 64-64l352 0c35 0 64 29 64 64l0 352c0 35-29 64-64 64z m32-416c0-18-14-32-32-32l-352 0c-18 0-32 14-32 32l0 352c0 18 14 32 32 32l352 0c18 0 32-14 32-32z"/>
<glyph unicode="&#57385;" d="M369 256l-81 0 0 81c0 8-7 15-16 15-9 0-16-7-16-15l0-81-81 0c-8 0-15-7-15-16 0-9 7-16 15-16l81 0 0-81c0-8 7-15 16-15 9 0 16 7 16 15l0 81 81 0c8 0 15 7 15 16 0 9-7 16-15 16z m79 224l-352 0c-35 0-64-29-64-64l0-352c0-35 29-64 64-64l352 0c35 0 64 29 64 64l0 352c0 35-29 64-64 64z m32-416c0-18-14-32-32-32l-352 0c-18 0-32 14-32 32l0 352c0 18 14 32 32 32l352 0c18 0 32-14 32-32z"/>
<glyph unicode="&#57386;" d="M367 256l-190 0c-9 0-17-7-17-16 0-9 8-16 17-16l190 0c9 0 17 7 17 16 0 9-8 16-17 16z m81 224l-352 0c-35 0-64-29-64-64l0-352c0-35 29-64 64-64l352 0c35 0 64 29 64 64l0 352c0 35-29 64-64 64z m32-416c0-18-14-32-32-32l-352 0c-18 0-32 14-32 32l0 352c0 18 14 32 32 32l352 0c18 0 32-14 32-32z"/>
<glyph unicode="&#57387;" d="M151 384l41 0c9 0 16 7 16 16 0 9-7 16-16 16l-80 0c-9 0-16-7-16-16l0-80c0-9 7-16 16-16 9 0 16 7 16 16l0 41 69-68c3-3 7-5 11-5 4 0 8 2 11 5 7 6 7 16 0 22l-68 69z m46-165l-69-68 0 41c0 9-7 16-16 16-9 0-16-7-16-16l0-80c0-9 7-16 16-16l80 0c9 0 16 7 16 16 0 9-7 16-16 16l-41 0 68 69c7 6 7 16 0 22-6 7-16 7-22 0z m203-11c-9 0-16-7-16-16l0-41-69 68c-6 7-16 7-22 0-7-6-7-16 0-22l68-69-41 0c-9 0-16-7-16-16 0-9 7-16 16-16l80 0c9 0 16 7 16 16l0 80c0 9-7 16-16 16z m48 304l-384 0c-35 0-64-29-64-64l0-384c0-35 29-64 64-64l384 0c35 0 64 29 64 64l0 384c0 35-29 64-64 64z m32-448c0-18-14-32-32-32l-384 0c-18 0-32 14-32 32l0 384c0 18 14 32 32 32l384 0c18 0 32-14 32-32z m-80 352l-80 0c-9 0-16-7-16-16 0-9 7-16 16-16l41 0-68-69c-7-6-7-16 0-22 3-3 7-5 11-5 4 0 8 2 11 5l69 68 0-41c0-9 7-16 16-16 9 0 16 7 16 16l0 80c0 9-7 16-16 16z"/>
<glyph unicode="&#57388;" d="M213 235l-117-117 0 90c0 9-7 16-16 16-9 0-16-7-16-16l0-128c0 0 0 0 0-1 0-4 2-7 4-10 0 0 0 0 1 0 0-1 0-1 0-1 3-2 6-4 10-4 1 0 1 0 1 0l128 0c9 0 16 7 16 16 0 9-7 16-16 16l-90 0 117 117c7 6 7 16 0 22-6 7-16 7-22 0z m231 208c-1 0 0 0-1 0 0 1 0 0 0 1-3 2-6 4-10 4-1 0-1 0-1 0l-128 0c-9 0-16-7-16-16 0-9 7-16 16-16l90 0-117-117c-7-6-7-16 0-22 6-7 16-7 22 0l117 117 0-90c0-9 7-16 16-16 9 0 16 7 16 16l0 128c0 0 0 0 0 1 0 4-2 7-4 10z m4 69l-384 0c-35 0-64-29-64-64l0-384c0-35 29-64 64-64l384 0c35 0 64 29 64 64l0 384c0 35-29 64-64 64z m32-448c0-18-14-32-32-32l-384 0c-18 0-32 14-32 32l0 384c0 18 14 32 32 32l384 0c18 0 32-14 32-32z"/>
<glyph unicode="&#57389;" d="M443 443c-6 7-16 7-22 0l-101-101 0 90c0 9-7 16-16 16-9 0-16-7-16-16l0-128c0-9 7-16 16-16l128 0c9 0 16 7 16 16 0 9-7 16-16 16l-90 0 101 101c7 6 7 16 0 22z m-235-219l-128 0c-9 0-16-7-16-16 0-9 7-16 16-16l90 0-101-101c-7-6-7-16 0-22 6-7 16-7 22 0l101 101 0-90c0-9 7-16 16-16 9 0 16 7 16 16l0 128c0 9-7 16-16 16z m240 288l-384 0c-35 0-64-29-64-64l0-384c0-35 29-64 64-64l384 0c35 0 64 29 64 64l0 384c0 35-29 64-64 64z m32-448c0-18-14-32-32-32l-384 0c-18 0-32 14-32 32l0 384c0 18 14 32 32 32l384 0c18 0 32-14 32-32z"/>
<glyph unicode="&#57390;" d="M208 96l-112 0 0 112c0 9-7 16-16 16-9 0-16-7-16-16l0-128c0-9 7-16 16-16l128 0c9 0 16 7 16 16 0 9-7 16-16 16z m240 416l-384 0c-35 0-64-29-64-64l0-384c0-35 29-64 64-64l384 0c35 0 64 29 64 64l0 384c0 35-29 64-64 64z m32-448c0-18-14-32-32-32l-384 0c-18 0-32 14-32 32l0 384c0 18 14 32 32 32l384 0c18 0 32-14 32-32z m-48 384l-128 0c-9 0-16-7-16-16 0-9 7-16 16-16l112 0 0-112c0-9 7-16 16-16 9 0 16 7 16 16l0 128c0 9-7 16-16 16z"/>
<glyph unicode="&#57391;" d="M511 497c0 4-2 7-4 10-1 0 0 0-1 0 0 1 0 0 0 1-3 2-6 4-10 4-1 0-1 0-1 0l-192 0c-8 0-16-7-16-16 0-9 8-16 16-16l154 0-213-212-212-213 0 154c0 8-7 16-16 16-9 0-16-8-16-16l0-192c0 0 0 0 0-1 0-4 2-7 4-10 0 0 0 0 1 0 0-1 0 0 0-1 3-2 6-4 10-4 1 0 1 0 1 0l192 0c8 0 16 7 16 16 0 9-8 16-16 16l-154 0 213 212c0 0 0 0 0 0l212 213 0-154c0-8 7-16 16-16 9 0 16 8 16 16l0 192c0 0 0 0 0 1z"/>
<glyph unicode="&#57392;" d="M112 352l288 0c9 0 16 7 16 16 0 9-7 16-16 16l-288 0c-9 0-16-7-16-16 0-9 7-16 16-16z m288-224l-288 0c-9 0-16-7-16-16 0-9 7-16 16-16l288 0c9 0 16 7 16 16 0 9-7 16-16 16z m0 128l-288 0c-9 0-16-7-16-16 0-9 7-16 16-16l288 0c9 0 16 7 16 16 0 9-7 16-16 16z"/>
<glyph unicode="&#57393;" d="M448 48l-34 147-45-45-203 203 45 45-147 34 34-147 45 45 203-203-45-45z"/>
<glyph unicode="&#57394;" d="M317 398l45-45-203-203-45 45-34-147 147 34-45 45 203 203 45-45 34 147z"/>
<glyph unicode="&#57395;" d="M288 384l64 0-80 128-80-128 64 0 0-256-64 0 80-128 80 128-64 0z"/>
<glyph unicode="&#57396;" d="M512 240l-128 80 0-64-256 0 0 64-128-80 128-80 0 64 256 0 0-64z"/>
<glyph unicode="&#57397;" d="M288 288l-64 0 0-64 64 0z m112-128l-64 0 0-64 64 0z m0 128l-64 0 0-64 64 0z m-224-128l-64 0 0-64 64 0z m304 352l-448 0c-9 0-16-7-16-16l0-480c0-9 7-16 16-16l448 0c9 0 16 7 16 16l0 480c0 9-7 16-16 16z m-16-480l-416 0 0 352 416 0z m0 384l-416 0 0 64 416 0z m-288-128l-64 0 0-64 64 0z m112-128l-64 0 0-64 64 0z"/>
<glyph unicode="&#57398;" d="M272 288c9 0 16 7 16 16l0 192c0 9-7 16-16 16-9 0-16-7-16-16l0-192c0-9 7-16 16-16z m80 178l0-34c75-31 128-106 128-192 0-115-93-208-208-208-115 0-208 93-208 208 0 86 53 161 128 192l0 34c-93-33-160-122-160-226 0-133 107-240 240-240 133 0 240 107 240 240 0 104-67 193-160 226z"/>
<glyph unicode="&#57399;" d="M379 170c7 7 7 17 0 23l-95 99c0 0 0 0 0 0 0 1 0 1-1 1 0 0 0 0 0 1-3 2-6 4-10 4 0 0-1 0-1 0 0 0 0 0 0 0 0 0 0 0 0 0-1 0-1 0-1 0-3-1-6-2-8-4-1 0-2 0-2-1-1 0-1-1-1-1 0 0 0-1 0-1l-95-98c-7-6-7-16 0-23 6-6 16-6 22 0l69 72 0-225c0-10 7-17 16-17 9 0 16 7 16 17l0 225 69-72c6-6 16-6 22 0z m13 207c-18 60-72 103-136 103-70 0-128-51-141-119-66-14-115-74-115-146 0-82 64-149 144-149 6 0 16 0 16 0l32 0 0 33-48 0c-62 0-112 52-112 116 0 64 50 116 112 116 0 64 50 116 112 116 57 0 103-44 110-100 64-4 114-57 114-124 0-65-50-119-112-123l-16-1 0-32c3 0 5-1 8-1 84 0 152 71 152 157 0 76-51 139-120 154z"/>
<glyph unicode="&#57400;" d="M357 128l-69-71 0 225c0 9-7 16-16 16-9 0-16-7-16-16l0-225-69 71c-6 7-16 7-22 0-7-6-7-16 0-22l95-99c0 0 0 0 0-1 0 0 0 0 1 0 0 0 0 0 0-1 3-2 6-4 10-4 0 0 1 0 1 0 0 0 0 0 0 0 0 0 0 0 0 0 1 0 1 0 1 0 3 1 6 2 8 4 1 0 2 0 2 1 1 0 1 1 1 1 0 0 0 0 0 1l95 98c7 6 7 16 0 22-6 7-16 7-22 0z m35 249c-18 60-72 103-136 103-70 0-128-51-141-119-66-14-115-73-115-145 0-77 56-139 128-147l0 33c-54 8-96 56-96 114 0 64 50 115 112 115 0 64 50 116 112 116 57 0 103-44 110-100 64-3 114-57 114-123 0-47-26-88-64-109l0-37c56 23 96 80 96 146 0 75-51 138-120 153z"/>
<glyph unicode="&#57401;" d="M448 384c0 64-32 128-32 128l-288 0c0 0-32-64-32-128 0-125 70-180 160-191l0-161-64 0c-9 0-16-7-16-16 0-9 7-16 16-16l160 0c9 0 16 7 16 16 0 9-7 16-16 16l-64 0 0 161c90 11 160 66 160 191z m-176-162c-81 0-144 46-144 162 0 64 15 81 18 96l252 0c3-15 18-32 18-96 0-116-63-162-144-162z"/>
<glyph unicode="&#57402;" d="M256 512l-256-288 96 0 0-224 128 0 0 112c0 9 7 16 16 16l32 0c9 0 16-7 16-16l0-112 128 0 0 224 96 0z m128-256l0-224-64 0 0 96c0 18-14 32-32 32l-64 0c-18 0-32-14-32-32l0-96-64 0 0 224-64 0 192 208 192-208z"/>
<glyph unicode="&#57403;" d="M263 132c2-2 5-4 8-4 0 0 0 0 1 0 0 0 0 0 0 0 0 0 0 0 0 0 0 0 1 0 1 0 4 0 7 2 10 4 0 0 0 0 0 1 1 0 80 80 80 80 7 6 7 16 0 22-6 6-16 6-22 0l-53-53 0 314c0 9-7 16-16 16-9 0-16-7-16-16l0-314-53 53c-6 6-16 6-22 0-7-6-7-16 0-22 0 0 81-81 82-81z m185 252l-48 0 0-32 32 0c9 0 16-7 16-16l0-288c0-9-7-16-16-16l-320 0c-9 0-16 7-16 16l0 288c0 9 7 16 16 16l32 0 0 32-48 0c-18 0-32-14-32-32l0-320c0-18 14-32 32-32l352 0c18 0 32 14 32 32l0 320c0 18-14 32-32 32z"/>
<glyph unicode="&#57404;" d="M203 405l53 53 0-314c0-9 7-16 16-16 9 0 16 7 16 16l0 314 53-53c6-7 16-7 22 0 7 6 7 16 0 22 0 0-80 81-80 81-3 2-6 4-10 4 0 0-1 0-1 0 0 0 0 0 0 0 0 0 0 0 0 0-1 0-1 0-1 0-3-1-6-2-8-4-1 0-82-81-82-81-7-6-7-16 0-22 6-7 16-7 22 0z m245-21l-48 0 0-32 32 0c9 0 16-7 16-16l0-288c0-9-7-16-16-16l-320 0c-9 0-16 7-16 16l0 288c0 9 7 16 16 16l32 0 0 32-48 0c-18 0-32-14-32-32l0-320c0-18 14-32 32-32l352 0c18 0 32 14 32 32l0 320c0 18-14 32-32 32z"/>
<glyph unicode="&#57405;" d="M352 48c0-9-7-16-16-16l-288 0c-9 0-16 7-16 16l0 288c0 9 7 16 16 16l48 0 0 32-64 0c-18 0-32-14-32-32l0-320c0-18 14-32 32-32l320 0c18 0 32 14 32 32l0 64-32 0z m128 464l-320 0c-18 0-32-14-32-32l0-320c0-18 14-32 32-32l320 0c18 0 32 14 32 32l0 320c0 18-14 32-32 32z m0-336c0-9-7-16-16-16l-288 0c-9 0-16 7-16 16l0 288c0 9 7 16 16 16l288 0c9 0 16-7 16-16z"/>
<glyph unicode="&#57406;" d="M32 480l128 0 0 32-160 0 0-160 32 0z m32-416l384 0 0 384-384 0z m32 352l320 0 0-320-320 0z m-64-256l-32 0 0-160 160 0 0 32-128 0z m320 352l0-32 128 0 0-128 32 0 0 160z m128-480l-128 0 0-32 160 0 0 160-32 0z"/>
<glyph unicode="&#57407;" d="M511 241c0 0 0 0 0 0 0 4-2 7-4 10 0 0-65 65-65 65-6 6-16 6-22 0-6-6-6-16 0-22l37-38-170 0 0 170 38-37c6-6 16-6 22 0 6 6 6 16 0 22 0 0-63 63-63 63-1 0-3 2-3 2-3 2-5 3-8 4-1 0-1 0-1 0 0 0 0 0-1 0 0 0 0 0 0 0 0 0 0 0 0 0-4 0-7-2-10-4 0 0-1-1-1-1 0-1-64-64-64-64-6-6-6-16 0-22 6-6 16-6 22 0l38 37 0-170-170 0 37 38c6 6 6 16 0 22-6 6-16 6-22 0 0 0-64-64-64-64 0 0 0 0 0 0-1 0-1-1-1-1-2-3-4-6-4-10 0 0 0 0 0 0 0 0 0 0 0-1 0 0 0 0 0 0 0 0 0 0 0-1 1-3 2-5 4-8 0 0 0-1 1-2 0 0 1-1 1-1l63-63c6-6 16-6 22 0 6 6 6 16 0 22l-37 38 170 0 0-170-38 37c-6 6-16 6-22 0-6-6-6-16 0-22 0 0 65-65 65-65 2-2 6-4 10-4 0 0 0 0 0 0 0 0 0 0 0 0 1 0 1 0 1 0 0 0 0 0 1 0 3 0 5 2 8 4 0 0 66 65 66 65 6 6 6 16 0 22-6 6-16 6-22 0l-38-37 0 170 170 0-37-38c-6-6-6-16 0-22 6-6 16-6 22 0 0 0 65 66 65 66 2 3 3 5 4 8 0 1 0 1 0 1 0 0 0 0 0 1 0 0 0 0 0 0z"/>
<glyph unicode="&#57408;" d="M511 19l0 158c0 8-7 15-15 15-9 0-16-7-16-15l0-123-202 202 202 202 0-123c0-8 7-15 16-15 8 0 15 7 15 15l0 158c0 1 1 2 1 2 0 1-1 2-1 3 0 3-1 5-2 6-1 1-1 3-1 4-1 0-3 0-4 1-1 1-3 2-6 2-1 0-2 1-3 1 0 0-1-1-2-1l-158 0c-8 0-15-7-15-15 0-9 7-16 15-16l123 0-202-202-202 202 123 0c8 0 15 7 15 16 0 8-7 15-15 15l-158 0c-1 0-2 1-3 1-4 0-8-2-11-5 0 0 0 0 0 0 0 0 0 0 0 0-3-3-5-7-5-11 0-1 1-2 1-3l0-158c0-8 7-15 15-15 9 0 16 7 16 15l0 123 202-202-202-202 0 123c0 8-7 15-16 15-8 0-15-7-15-15l0-158c0-1-1-2-1-3 0-4 2-8 5-11 0 0 0 0 0 0 0 0 0 0 0 0 3-3 7-5 11-5 1 0 2 0 3 1l158 0c8 0 15 7 15 15 0 9-7 16-15 16l-123 0 202 202 202-202-123 0c-8 0-15-7-15-16 0-8 7-15 15-15l158 0c1 0 2-1 3-1 4 0 8 2 11 5 0 0 0 0 0 0 0 0 0 0 0 0 3 3 5 7 5 11 0 1-1 2-1 3z"/>
<glyph unicode="&#57409;" d="M507 507c-6 7-16 7-22 0l-165-165 0 122c0 9-7 16-16 16-9 0-16-7-16-16l0-160c0 0 0 0 0-1 0-4 2-7 4-10 1 0 0 0 1 0 0-1 0-1 0-1 3-2 6-4 10-4 1 0 1 0 1 0l160 0c9 0 16 7 16 16 0 9-7 16-16 16l-122 0 165 165c7 6 7 16 0 22z m-287-288c0 0 0 0-1 0 0 1 0 0 0 1-3 2-6 4-10 4-1 0-1 0-1 0l-160 0c-9 0-16-7-16-16 0-9 7-16 16-16l122 0-165-165c-7-6-7-16 0-22 6-7 16-7 22 0l165 165 0-122c0-9 7-16 16-16 9 0 16 7 16 16l0 160c0 0 0 0 0 1 0 4-2 7-4 10z"/>
<glyph unicode="&#57410;" d="M197 220l-165-165 0 122c0 8-7 16-16 16-9 0-16-8-16-16l0-160c0 0 0-1 0-1 0-4 2-7 4-10 0 0 0 0 1 0 0-1 0-1 0-1 3-2 6-4 10-4 1 0 1 0 1 0l160 0c8 0 16 7 16 16 0 9-8 16-16 16l-122 0 165 165c6 6 6 16 0 22-6 6-16 6-22 0z m314 277c0 4-2 7-4 10-1 0 0 0-1 0 0 1 0 0 0 1-3 2-6 4-10 4-1 0-1 0-1 0l-160 0c-8 0-16-7-16-16 0-9 8-16 16-16l122 0-165-165c-6-6-6-16 0-22 6-6 16-6 22 0l165 165 0-122c0-8 7-16 16-16 9 0 16 8 16 16l0 160c0 0 0 0 0 1z"/>
<glyph unicode="&#57411;" d="M443 363c-6 6-15 6-21 0l-166-180-166 180c-6 6-15 6-21 0-6-6-6-15 0-21 0 0 175-193 176-193 3-4 7-5 11-5 4 0 8 1 11 5 1 0 176 193 176 193 6 6 6 15 0 21z"/>
<glyph unicode="&#57412;" d="M363 267c0 1-193 176-193 176-6 6-16 6-21 0-6-6-6-15 0-21l180-166-180-166c-6-6-6-16 0-21 6-6 15-6 21 0 0 0 193 175 193 176 4 3 5 7 5 11 0 4-1 8-5 11z"/>
<glyph unicode="&#57413;" d="M427 170c0 0-175 193-176 193-3 4-7 5-11 5-4 0-8-2-11-5-1 0-176-193-176-193-6-6-6-16 0-21 6-6 15-6 21 0l166 180 166-180c6-6 15-6 21 0 6 5 6 15 0 21z"/>
<glyph unicode="&#57414;" d="M198 256l181 167c6 6 6 15 0 21-6 6-15 6-21 0 0 0-194-175-194-176-4-3-5-7-5-12 0-4 1-8 5-11 0-1 194-176 194-176 6-6 15-6 21 0 6 6 6 15 0 21z"/>
<glyph unicode="&#57415;" d="M256 320c-35 0-64-29-64-64 0-35 29-64 64-64 35 0 64 29 64 64 0 35-29 64-64 64z m0-96c-18 0-32 14-32 32 0 18 14 32 32 32 18 0 32-14 32-32 0-18-14-32-32-32z m0 288c-141 0-256-115-256-256 0-141 115-256 256-256 141 0 256 115 256 256 0 141-115 256-256 256z m0-480c-124 0-224 100-224 224 0 124 100 224 224 224 124 0 224-100 224-224 0-124-100-224-224-224z m0 384c-88 0-160-72-160-160 0-88 72-160 160-160 88 0 160 72 160 160 0 88-72 160-160 160z m0-288c-71 0-128 57-128 128 0 71 57 128 128 128 71 0 128-57 128-128 0-71-57-128-128-128z"/>
<glyph unicode="&#57416;" d="M256 480c-133 0-240-107-240-240 0-133 107-240 240-240 133 0 240 107 240 240 0 133-107 240-240 240z m16-446l0 110c0 9-7 16-16 16-9 0-16-7-16-16l0-110c-102 7-183 88-190 190l110 0c9 0 16 7 16 16 0 9-7 16-16 16l-110 0c7 102 88 182 190 190l0-110c0-9 7-16 16-16 9 0 16 7 16 16l0 110c102-8 183-88 190-190l-110 0c-9 0-16-7-16-16 0-9 7-16 16-16l110 0c-7-102-88-183-190-190z"/>
<glyph unicode="&#57417;" d="M512 320l-176 16-80 176-80-176-176-16 133-134-37-186 159 97 160-97-36 186z m-240-196l-17 11-16-10-97-60 22 115 4 16-12 13-85 85 126 12 8 17 51 112 51-112 8-17 126-12-97-97 4-17 22-115z"/>
<glyph unicode="&#57418;" d="M368 512c-48 0-112-83-112-83 0 0-64 83-112 83-97 0-144-49-144-150 0-95 256-362 256-362 0 0 256 267 256 362 0 101-47 150-144 150z m-336-154c0 85 27 121 112 121 25 0 112-83 112-83 0 0 87 83 112 83 85 0 112-36 112-121 0-80-224-309-224-309 0 0-224 229-224 309z"/>
<glyph unicode="&#57419;" d="M507 412c-6 6-16 6-22 0l-309-309-148 147c-6 7-16 7-23 0-6-6-6-16 0-22l159-159c0 0 0 0 0 0 0 0 0 0 0 0 7-6 17-6 23 0l320 320c6 6 6 16 0 23z"/>
<glyph unicode="&#57420;" d="M278 272l198 197c6 6 6 16 0 22-7 7-17 7-23 0l-197-197-197 197c-6 7-16 7-23 0-6-6-6-16 0-22l198-197-198-197c-6-6-6-16 0-23 7-6 17-6 23 0l197 198 197-198c6-6 16-6 22 0 7 7 7 17 0 23z"/>
<glyph unicode="&#57421;" d="M464 256l-416 0c-9 0-16-7-16-16 0-9 7-16 16-16l416 0c9 0 16 7 16 16 0 9-7 16-16 16z"/>
<glyph unicode="&#57422;" d="M480 256l-192 0 0 192c0 9-7 16-16 16-9 0-16-7-16-16l0-192-192 0c-9 0-16-7-16-16 0-9 7-16 16-16l192 0 0-192c0-9 7-16 16-16 9 0 16 7 16 16l0 192 192 0c9 0 16 7 16 16 0 9-7 16-16 16z"/>
<glyph unicode="&#57423;" d="M496 96l-48 0 0 320c0 5-2 13-5 20l16 17c6 6 6 16 0 23-6 6-16 6-23 0l-26-28-314 0 0 48c0 9-7 16-16 16-9 0-16-7-16-16l0-48-48 0c-9 0-16-7-16-16 0-9 7-16 16-16l48 0 0-336c0-9 7-16 16-16l336 0 0-48c0-9 7-16 16-16 9 0 16 7 16 16l0 48 48 0c9 0 16 7 16 16 0 9-7 16-16 16z m-400 320l283 0-283-296z m320-320l-298 0 298 312z"/>
<glyph unicode="&#57424;" d="M480 96c0 0-64 78-64 129 0 10 0 21 0 31 0 11 0 22 0 32 0 12 0 23 0 32 0 19 0 32 0 32 0 88-72 160-160 160-88 0-160-72-160-160 0 0 0-13 0-32 0-9 0-20 0-32 0-10 0-21 0-32 0-10 0-20 0-30 0-51-64-130-64-130l147 0c-1-5-3-10-3-16 0-44 36-80 80-80 44 0 80 36 80 80 0 6-2 11-3 16z m-352 256c0 71 57 128 128 128 71 0 128-57 128-128 0 0 0-13 0-32l-256 0c0 19 0 32 0 32z m0-64l256 0c0-10 0-21 0-32l-256 0c0 11 0 22 0 32z m128-256c-27 0-48 21-48 48 0 6 1 11 3 16l90 0c2-5 3-10 3-16 0-27-21-48-48-48z m-160 96c0 0 31 46 32 96l256 0c0-50 32-96 32-96z"/>
<glyph unicode="&#57425;" d="M507 26l-142 143c31 36 51 83 51 135 0 115-93 208-208 208-115 0-208-93-208-208 0-115 93-208 208-208 52 0 99 20 135 51l143-142c6-6 16-6 21 0 6 5 6 15 0 21z m-299 102c-97 0-176 79-176 176 0 97 79 176 176 176 97 0 176-79 176-176 0-97-79-176-176-176z"/>
<glyph unicode="&#57426;" d="M283 380c-6 6-15 6-21 0l-54-54-54 54c-6 6-16 6-22 0-6-6-6-16 0-22l54-54-54-54c-6-6-6-15 0-21 6-6 16-6 22 0l54 54 54-54c6-6 15-6 21 0 6 6 6 15 0 21l-54 54 54 54c6 6 6 16 0 22z m224-354l-142 143c31 36 51 83 51 135 0 115-93 208-208 208-115 0-208-93-208-208 0-115 93-208 208-208 52 0 99 20 135 51l143-142c6-6 16-6 21 0 6 5 6 15 0 21z m-299 102c-97 0-176 79-176 176 0 97 79 176 176 176 97 0 176-79 176-176 0-97-79-176-176-176z"/>
<glyph unicode="&#57427;" d="M294 379l-124-117-49 53c-6 6-15 6-21 0-5-6-5-16 0-22 0 0 59-64 60-64 3-4 7-5 10-5 4 0 8 1 11 5 1 0 134 128 134 128 6 6 6 16 0 22-6 6-15 7-21 0z m213-353l-142 143c31 36 51 83 51 135 0 115-93 208-208 208-115 0-208-93-208-208 0-115 93-208 208-208 52 0 99 20 135 51l143-142c6-6 16-6 21 0 6 5 6 15 0 21z m-299 102c-97 0-176 79-176 176 0 97 79 176 176 176 97 0 176-79 176-176 0-97-79-176-176-176z"/>
<glyph unicode="&#57428;" d="M304 320l-192 0c-9 0-16-7-16-16 0-9 7-16 16-16l192 0c9 0 16 7 16 16 0 9-7 16-16 16z m203-294l-142 143c31 36 51 83 51 135 0 115-93 208-208 208-115 0-208-93-208-208 0-115 93-208 208-208 52 0 99 20 135 51l143-142c6-6 16-6 21 0 6 5 6 15 0 21z m-299 102c-97 0-176 79-176 176 0 97 79 176 176 176 97 0 176-79 176-176 0-97-79-176-176-176z"/>
<glyph unicode="&#57429;" d="M304 320l-80 0 0 80c0 9-7 16-16 16-9 0-16-7-16-16l0-80-80 0c-9 0-16-7-16-16 0-9 7-16 16-16l80 0 0-80c0-9 7-16 16-16 9 0 16 7 16 16l0 80 80 0c9 0 16 7 16 16 0 9-7 16-16 16z m203-294l-142 143c31 36 51 83 51 135 0 115-93 208-208 208-115 0-208-93-208-208 0-115 93-208 208-208 52 0 99 20 135 51l143-142c6-6 16-6 21 0 6 5 6 15 0 21z m-299 102c-97 0-176 79-176 176 0 97 79 176 176 176 97 0 176-79 176-176 0-97-79-176-176-176z"/>
<glyph unicode="&#57430;" d="M384 256l-128 0 0 128c0 9-7 16-16 16-9 0-16-7-16-16l0-144c0 0 0 0 0 0 0-4 1-7 3-9 3-4 8-7 13-7 0 0 0 0 1 0l143 0c9 0 16 7 16 16 0 9-7 16-16 16z m-128 256c-141 0-256-115-256-256 0-141 115-256 256-256 141 0 256 115 256 256 0 141-115 256-256 256z m0-480c-124 0-224 100-224 224 0 124 100 224 224 224 124 0 224-100 224-224 0-124-100-224-224-224z"/>
<glyph unicode="&#57431;" d="M308 307c-10 2-20-3-23-11l-45-104c0 0 0 0 0 0-26 0-48-22-48-48 0-27 22-48 48-48 26 0 48 21 48 48 0 14-6 27-16 35l46 109c4 8-1 16-10 19z m-68-179c-9 0-16 7-16 16 0 9 7 16 16 16 9 0 16-7 16-16 0-9-7-16-16-16z m16 384c-141 0-256-115-256-256 0-141 115-256 256-256 141 0 256 115 256 256 0 141-115 256-256 256z m0-480c-124 0-224 100-224 224 0 124 100 224 224 224 124 0 224-100 224-224 0-124-100-224-224-224z m0 384c-88 0-160-72-160-160l32 0c0 71 57 128 128 128 71 0 128-57 128-128l32 0c0 88-72 160-160 160z"/>
<glyph unicode="&#57432;" d="M390 316l-150-149-52 52c-6 7-17 7-23 0-7-6-7-17 0-23l62-62c0-1 0 0 0-1 1 0 0 0 1 0 6-6 15-6 21 0l162 162c6 6 6 15 0 21-6 6-15 6-21 0z m-118 164c-133 0-240-107-240-240 0-133 107-240 240-240 133 0 240 107 240 240 0 133-107 240-240 240z m0-448c-115 0-208 93-208 208 0 115 93 208 208 208 115 0 208-93 208-208 0-115-93-208-208-208z"/>
<glyph unicode="&#57433;" d="M348 316c-6 6-15 6-22 0l-54-54-54 54c-7 6-16 6-22 0-6-6-6-15 0-22l55-54-55-54c-6-6-6-16 0-21 6-6 15-6 22 0l54 54 54-54c7-6 16-6 22 0 6 5 6 15 0 21l-55 54 55 54c6 7 6 16 0 22z m-76 164c-133 0-240-107-240-240 0-133 107-240 240-240 133 0 240 107 240 240 0 133-107 240-240 240z m0-448c-115 0-208 93-208 208 0 115 93 208 208 208 115 0 208-93 208-208 0-115-93-208-208-208z"/>
<glyph unicode="&#57434;" d="M367 256l-190 0c-9 0-17-7-17-16 0-9 8-16 17-16l190 0c9 0 17 7 17 16 0 9-8 16-17 16z m-95 224c-133 0-240-107-240-240 0-133 107-240 240-240 133 0 240 107 240 240 0 133-107 240-240 240z m0-448c-115 0-208 93-208 208 0 115 93 208 208 208 115 0 208-93 208-208 0-115-93-208-208-208z"/>
<glyph unicode="&#57435;" d="M367 256l-79 0 0 79c0 9-7 17-16 17-9 0-16-8-16-17l0-79-79 0c-9 0-17-7-17-16 0-9 8-16 17-16l79 0 0-79c0-9 7-17 16-17 9 0 16 8 16 17l0 79 79 0c9 0 17 7 17 16 0 9-8 16-17 16z m-95 224c-133 0-240-107-240-240 0-133 107-240 240-240 133 0 240 107 240 240 0 133-107 240-240 240z m0-448c-115 0-208 93-208 208 0 115 93 208 208 208 115 0 208-93 208-208 0-115-93-208-208-208z"/>
<glyph unicode="&#57436;" d="M256 512c-141 0-256-115-256-256 0-141 115-256 256-256 141 0 256 115 256 256 0 141-115 256-256 256z m0-32c52 0 100-18 138-48l-63-73c-21 16-47 25-75 25-28 0-54-9-75-25l-63 73c38 30 86 48 138 48z m96-224c0-53-43-96-96-96-53 0-96 43-96 96 0 53 43 96 96 96 53 0 96-43 96-96z m-320 0c0 60 24 114 62 155l64-74c-19-22-30-50-30-81 0-35 14-67 37-90l-62-73c-44 41-71 98-71 163z m224-224c-48 0-92 15-128 40l63 74c19-11 41-18 65-18 24 0 46 7 65 18l63-74c-36-25-80-40-128-40z m153 61l-62 73c23 23 37 55 37 90 0 31-11 59-30 81l64 74c38-41 62-95 62-155 0-65-27-122-71-163z"/>
<glyph unicode="&#57437;" d="M410 412c-6 6-16 6-22 0l-259-262-1 186c0 8-7 15-16 15-9 0-16-7-16-15l1-224c0 0 0 0 0 0 0 0 0 0 0 0l0-1c0-3 1-7 4-9 0-1 0-1 0-1 1-1 1-1 2-1 2-2 5-4 9-4l1 0c0 0 0 0 0 0 0 0 0 0 0 0l224 1c8 0 15 7 15 16 0 9-7 16-15 16l-186-1 259 262c7 6 7 16 0 22z"/>
<glyph unicode="&#57438;" d="M415 113l0 224c0 8-7 15-16 15-9 0-16-7-16-15l0-186-260 260c-6 7-16 7-22 0-7-6-7-16 0-22l260-260-186 0c-8 0-15-7-15-16 0-9 7-16 15-16l224 0c0 0 0 0 0 0 0 0 0 0 0 0l1 0c4 0 7 1 9 3 1 1 1 1 2 1 0 1 0 1 0 1 3 3 4 6 4 10l0 1c0 0 0 0 0 0 0 0 0 0 0 0z"/>
<glyph unicode="&#57439;" d="M399 416l-223 0c-9 0-16-7-16-16 0-9 7-16 16-16l185 0-260-260c-7-6-7-16 0-23 6-6 16-6 22 0l260 261 0-185c0-9 7-16 16-16 9 0 16 7 16 16l0 223c0 0 0 0 0 0 0 0 0 0 0 0 0 9-7 16-16 16z"/>
<glyph unicode="&#57440;" d="M411 123l-262 262 190 0c8 0 15 7 15 16 0 8-7 15-15 15l-225-1c-1 0-1 1-2 1-9 0-16-7-16-16l0 0c0 0 0 0 0 0 0 0 0 0 0 0l1-226c0-8 7-15 16-15 9 0 16 7 16 15l-1 187 261-260c6-7 16-7 22 0 6 6 6 16 0 22z"/>
<glyph unicode="&#57441;" d="M442 236c-6 6-16 6-22 0l-133-146 0 374c0 9-7 16-16 16-8 0-15-7-15-16l0-374-133 146c-6 6-16 6-22 0-7-6-7-16 0-22l158-174c0 0 0 0 0-1 1 0 1-1 1-1 1-1 2-1 2-1 3-2 5-3 8-4 1 0 1 0 1 0 0 0 0 0 0 0 1 0 1 0 1 0 0 0 0 0 0 0 4 0 7 2 10 4 0 0 1 0 1 1 0 0 0 0 0 0 0 1 0 1 1 1l158 175c7 6 7 16 0 22z"/>
<glyph unicode="&#57442;" d="M479 241c0 0 0 0 0 1-1 3-2 5-4 8 0 0 0 1-1 2 0 0-1 0-1 1-1 0-1 0-1 0l-174 158c-6 6-16 6-22 0-6-6-6-16 0-22l146-133-374 0c-9 0-16-7-16-16 0-8 7-15 16-15l374 0-146-133c-6-6-6-16 0-22 6-7 16-7 22 0l175 158c0 1 0 1 1 1 0 0 0 0 0 0 1 0 1 1 1 1 2 3 4 6 4 10 0 0 0 0 0 0 0 0 0 0 0 1 0 0 0 0 0 0z"/>
<glyph unicode="&#57443;" d="M442 299l-158 175c-1 0-1 0-1 1 0 0 0 0 0 0 0 1-1 1-1 1-2 2-6 4-10 4 0 0 0 0 0 0 0 0 0 0-1 0 0 0 0 0 0 0 0 0 0 0-1 0-3-1-5-2-8-4 0 0-1 0-2-1 0 0 0-1-1-1 0-1 0-1 0-1l-158-174c-7-6-7-16 0-22 6-7 16-7 22 0l133 146 0-375c0-9 7-16 15-16 9 0 16 7 16 16l0 375 133-146c6-7 16-7 22 0 7 6 7 16 0 22z"/>
<glyph unicode="&#57444;" d="M464 256l-375 0 146 133c7 6 7 16 0 22-6 6-16 6-22 0 0 0-174-158-175-158 0-1-1-1-1-1-1-1-1-2-1-2-2-3-3-5-4-8 0-1 0-1 0-1 0 0 0 0 0-1 0 0 0 0 0 0 0 0 0 0 0 0 0-4 2-8 4-10 0 0 0-1 1-1 0 0 0 0 0 0 1 0 1 0 1-1l175-158c6-7 16-7 22 0 7 6 7 15 0 22l-146 133 375 0c9 0 16 7 16 15 0 9-7 16-16 16z"/>
<glyph unicode="&#57445;" d="M448 48c0-9-7-16-16-16l-352 0c-9 0-16 7-16 16l0 352c0 9 7 16 16 16l208 0 0 32-224 0c-18 0-32-14-32-32l0-384c0-18 14-32 32-32l384 0c18 0 32 14 32 32l0 224-32 0z m63 416c0 0 0 0 0 0 0 0 0 0 0 0l0 1c0 3-1 7-4 9 0 1 0 1 0 1-1 1-1 1-2 1-2 2-5 4-9 4l-1 0c0 0 0 0 0 0l0 0-161-1c-8 0-15-7-15-16 0-9 7-16 15-16l123 0-260-261c-7-6-6-16 0-22 6-6 16-6 22 0l260 262 1-122c0-8 7-15 16-15 9 0 16 7 16 15z"/>
<glyph unicode="&#57446;" d="M447 48c0-9-7-16-16-16l-351 0c-9 0-16 7-16 16l0 352c0 9 7 16 16 16l207 0 0 32-223 0c-18 0-32-14-32-32l0-384c0-18 14-32 32-32l383 0c18 0 32 14 32 32l0 224-32 0z m59 428c-6 6-16 6-22 0l-260-262 0 122c0 8-8 15-16 15-9 0-16-7-16-15l1-160c0 0 0 0 0 0 0 0 0 0 0 0l0-1c0-3 1-7 3-9 1-1 1-1 1-1 1-1 1-1 1-1 3-2 6-4 10-4l1 0c0 0 0 0 0 0 0 0 0 0 0 0l160 1c8 0 15 7 15 16 0 9-7 16-15 16l-122-1 259 262c7 6 7 16 0 22z"/>
<glyph unicode="&#57447;" d="M288 288l-32 0 0-64-64 0 0-32 64 0 0-64 32 0 0 64 64 0 0 32-64 0z m160 128l-64 0 0 64-224 0 0-64-64 0c-35 0-64-29-64-64l0-288c0-35 29-64 64-64l352 0c35 0 64 29 64 64l0 288c0 35-29 64-64 64z m-256 32l160 0 0-32-160 0z m288-384c0-18-14-32-32-32l-352 0c-18 0-32 14-32 32l0 288c0 18 14 32 32 32l352 0c18 0 32-14 32-32z"/>
<glyph unicode="&#57448;" d="M352 448c18 0 32 14 32 32 0 18-14 32-32 32-18 0-32-14-32-32 0-18 14-32 32-32z m-96-32c18 0 32 14 32 32 0 18-14 32-32 32-18 0-32-14-32-32 0-18 14-32 32-32z m185-384c-32 62-89 192-89 192l0 128 16 0c9 0 16 7 16 16 0 9-7 16-16 16l-192 0c-9 0-16-7-16-16 0-9 7-16 16-16l16 0 0-128c0 0-55-135-87-195-15-29-15-29 21-29 77 0 228 0 300 0 15 0 31 0 15 32z m-217 192l0 128 96 0 0-128c0 0 6-13 14-32l-123 0c8 19 13 32 13 32z m158-192c-61 0-149 0-213 0-30 0-30 0-17 24 13 26 31 68 46 104l150 0c15-34 33-75 46-101 14-27 0-27-12-27z"/>
<glyph unicode="&#57449;" d="M320 480c-158 70-288 0-288 0l0-464c0-9 7-16 16-16 9 0 16 7 16 16l0 202c48 11 145 23 256-26 144-64 192 32 192 32l0 288c0 0-48-96-192-32z m160-256c0 0-64-48-176 0-109 47-196 37-240 26l0 212c44 15 131 33 240-14 112-48 176 0 176 0z"/>
<glyph unicode="&#57450;" d="M448 480l-129 32-42-124 16-54 50 139 64-16-60-166c-24 17-54 27-85 28l-6 10-63 183-129-32 74-213c-26-29-42-66-42-107 0-88 72-160 160-160 88 0 160 72 160 160 0 41-16 78-42 107z m-343-23l64 16 56-156c-22-4-43-13-60-26z m279-297c0-71-57-128-128-128-71 0-128 57-128 128 0 71 57 128 128 128 71 0 128-57 128-128z m-176 64l0-32 32 0 0-96 32 0 0 128z"/>
<glyph unicode="&#57451;" d="M256 448c-70 0-127-57-127-128 0-71 57-128 127-128 70 0 127 57 127 128 0 71-57 128-127 128z m0-224c-53 0-96 43-96 96 0 53 43 96 96 96 53 0 96-43 96-96 0-53-43-96-96-96z m254-132l-80 149c11 24 17 51 17 79 0 106-86 192-191 192-106 0-191-86-191-192 0-29 7-56 18-81l-81-147c-3-5-2-12 2-17 4-5 10-8 16-6l80 18 27-76c3-6 8-10 14-11 1 0 1 0 1 0 6 0 12 3 14 8l66 123c11-2 22-3 34-3 11 0 22 2 32 3l68-123c2-5 8-8 14-8 0 0 0 0 1 0 6 1 11 5 14 11l27 76 80-18c6-2 12 1 16 6 4 5 5 11 2 17z m-365-37l-20 56c-2 8-10 12-18 11l-59-14 54 99c22-30 53-54 89-67z m111 105c-88 0-159 72-159 160 0 88 71 160 159 160 88 0 160-72 160-160 0-88-72-160-160-160z m149-38c-8 1-16-3-18-11l-20-56-47 85c37 13 68 37 91 68l54-100z"/>
<glyph unicode="&#57452;" d="M401 32l-258 0c-9 0-16-7-16-16 0-9 7-16 16-16l258 0c8 0 16 7 16 16 0 9-8 16-16 16z m109 403c-2 8-8 13-16 13l-77 0 0 48c0 9-8 16-16 16l-257 0c-8 0-16-7-16-16l0-48-78 0c-7 0-14-5-15-13-1-2-12-58 20-96 18-23 48-51 86-51 1 0 2 0 3 0 21-50 63-86 112-94l0-98-49 0c-8 0-15-8-15-16 0-9 7-16 15-16l129 0c8 0 16 7 16 16 0 8-8 16-16 16l-48 0 0 98c51 6 93 42 114 94 0 0 1 0 1 0 39 0 68 28 87 51 31 38 20 94 20 96z m-430-76c-15 17-16 42-15 57l63 0 0-54c0-14 2-28 5-41-24 4-42 24-53 38z m305 3c0-77-48-140-111-140-63 0-114 63-114 140l0 118 224 0 0-118z m80-3c-11-14-29-34-53-38 3 13 5 27 5 41l0 54 63 0c0-15-1-40-15-57z"/>
<glyph unicode="&#57453;" d="M256 512c-141 0-256-115-256-256 0-141 115-256 256-256 141 0 256 115 256 256 0 141-115 256-256 256z m0-480c-124 0-224 100-224 224 0 124 100 224 224 224 124 0 224-100 224-224 0-124-100-224-224-224z m-55 253c-18-29-8-67 23-85 31-17 70-7 87 23 18 30 41 193 41 193 0 0-134-101-151-131z m27-15c17 28 100 105 92 92 0 0-20-95-36-123-8-14-17-27-44-12-28 16-20 29-12 43z"/>
<glyph unicode="&#57454;" d="M384 352l-256 0c-35 0-64-29-64-64l0-160c0-35 29-64 64-64l256 0c35 0 64 29 64 64l0 160c0 35-29 64-64 64z m32-224c0-18-14-32-32-32l-256 0c-18 0-32 14-32 32l0 160c0 18 14 32 32 32l256 0c18 0 32-14 32-32z m0 288l-100 0 79 68c6 6 6 17 0 23-7 7-17 7-24 0l-107-91-16 0-107 91c-7 7-17 7-24 0-6-6-6-17 0-23l79-68-100 0c-53 0-96-43-96-96l0-224c0-53 43-96 96-96l320 0c53 0 96 43 96 96l0 224c0 53-43 96-96 96z m64-320c0-35-29-64-64-64l-320 0c-35 0-64 29-64 64l0 224c0 35 29 64 64 64l320 0c35 0 64-29 64-64z"/>
<glyph unicode="&#57455;" d="M348 96c38 0 68 29 68 64l0 288c0 35-30 64-68 64l-152 0c-38 0-68-29-68-64l0-288c0-35 30-64 68-64l51 0 0-64-102 0c-9 0-17-7-17-16 0-9 8-16 17-16l237 0c9 0 17 7 17 16 0 9-8 16-17 16l-102 0 0 64z m-152 32c-19 0-34 14-34 32l0 32 51 0c9 0 17 7 17 16 0 9-8 16-17 16l-51 0 0 64 51 0c9 0 17 7 17 16 0 9-8 16-17 16l-51 0 0 64 51 0c9 0 17 7 17 16 0 9-8 16-17 16l-51 0 0 32c0 18 15 32 34 32l152 0c19 0 34-14 34-32l0-32-51 0c-9 0-17-7-17-16 0-9 8-16 17-16l51 0 0-64-51 0c-9 0-17-7-17-16 0-9 8-16 17-16l51 0 0-64-51 0c-9 0-17-7-17-16 0-9 8-16 17-16l51 0 0-32c0-18-15-32-34-32z"/>
<glyph unicode="&#57456;" d="M402 288l-27 98c5 2 9 8 9 14 0 9-7 16-16 16l-13 0c0 0 0 0 0 0l-51 0c-9 0-16-7-16-16 0-9 7-16 16-16l36 0 26-96-174 0 0 64 16 0c9 0 16 7 16 16 0 9-7 16-16 16l-64 0c-9 0-16-7-16-16 0-9 7-16 16-16l16 0 0-64-48 0c-62 0-112-50-112-112 0-62 50-112 112-112 56 0 103 42 110 96l68 0c7-54 54-96 110-96 62 0 112 50 112 112 0 61-49 111-110 112z m-290-128l78 0c-7-37-39-64-78-64-44 0-80 36-80 80 0 44 36 80 80 80 39 0 71-28 78-64l-78 0c-9 0-16-7-16-16 0-9 7-16 16-16z m177 32l-67 0c-3 25-15 47-32 64l134 0c-18-17-31-39-35-64z m111-96c-44 0-80 36-80 80 0 36 24 66 56 76l22-80c3-9 12-14 21-12 9 3 15 12 12 21l-20 74c39-5 69-39 69-79 0-44-36-80-80-80z"/>
<glyph unicode="&#57457;" d="M192 416l128 0 0 32-128 0z m256 96l-384 0c-18 0-32-14-32-32l0-352c0-24 13-44 32-55l0-57c0-9 7-16 16-16 9 0 16 7 16 16l0 48 320 0 0-48c0-9 7-16 16-16 9 0 16 7 16 16l0 57c19 11 32 31 32 55l0 352c0 18-14 32-32 32z m-352-416c-18 0-32 14-32 32 0 18 14 32 32 32 18 0 32-14 32-32 0-18-14-32-32-32z m265 0l-210 0c6 9 9 20 9 32 0 12-3 22-9 32l210 0c-6-10-9-20-9-32 0-12 3-23 9-32z m55 0c-18 0-32 14-32 32 0 18 14 32 32 32 18 0 32-14 32-32 0-18-14-32-32-32z m32 112l0-16-384 0 0 160 384 0z m0 176l-384 0 0 80c0 9 7 16 16 16l352 0c9 0 16-7 16-16z"/>
<glyph unicode="&#57458;" d="M469 310l-21 106c-16 48-43 96-96 96l-192 0c-53 0-80-48-96-96l-21-106c-25-13-43-39-43-70 0-26 13-49 32-64l0-48c0-24 13-44 32-55l0-41c0-18 14-32 32-32l32 0c18 0 32 14 32 32l0 32 192 0 0-32c0-18 14-32 32-32l32 0c18 0 32 14 32 32l0 41c19 11 32 31 32 55l0 48c19 15 32 38 32 64 0 31-18 57-43 70z m-373 106c16 32 29 64 64 64l192 0c35 0 48-32 64-64l19-96c-1 0-2 0-3 0-26 0-49-13-64-32l-224 0c-15 19-38 32-64 32-1 0-2 0-3 0z m-64-176c0 26 21 48 48 48 27 0 48-22 48-48 0-27-21-48-48-48-27 0-48 21-48 48z m96-192c0-9-7-16-16-16-9 0-16 7-16 16l0 16 32 0z m288 0c0-9-7-16-16-16-9 0-16 7-16 16l0 16 32 0z m0 48l-320 0c-18 0-32 14-32 32l384 0c0-18-14-32-32-32z m32 64l-384 0 0 2c5-1 11-2 16-2 44 0 80 36 80 80 0 5-1 11-2 16l196 0c-1-5-2-11-2-16 0-44 36-80 80-80 6 0 11 1 16 2z m-16 32c-26 0-48 21-48 48 0 26 22 48 48 48 26 0 48-22 48-48 0-27-22-48-48-48z"/>
<glyph unicode="&#57459;" d="M448 256l-112 0 0 32 80 0 0 160-80 0 0 32c0 18-14 32-32 32l-96 0c-18 0-32-14-32-32l0-32-112 0-64-80 64-80 112 0 0-32-80 0 0-160 80 0 0-64c0-18 14-32 32-32l96 0c18 0 32 14 32 32l0 64 112 0 64 80z m-240 208c0 9 7 16 16 16l64 0c9 0 16-7 16-16l0-16-96 0z m-128-144l-48 48 48 48 304 0 0-96z m224-32l0-32-96 0 0 32z m0-240c0-9-7-16-16-16l-64 0c-9 0-16 7-16 16l0 48 96 0z m128 80l-304 0 0 96 304 0 48-48z"/>
<glyph unicode="&#57460;" d="M112 380c-65-63-65-152-15-223-37-51-61-98-61-98-6-6-6-16 0-22 6-6 17-6 23 0 0 0 23 45 59 95 3-3 4-6 7-8 76-74 187-86 262-13 79 77 93 361 93 361 0 0-267 8-368-92z m252-247c-57-55-136-66-217 13-3 4-6 7-9 11 10 13 22 26 34 38 71 70 145 95 145 95 6 6 6 16 0 22-7 6-17 6-23 0 0 0-73-24-143-93-12-11-23-24-34-37-45 66-30 129 17 176 102 99 314 84 314 84 0 0-17-242-84-309z"/>
<glyph unicode="&#57461;" d="M256 480c-106 0-192-86-192-192 0-71 39-132 96-165l0-91 192 0 0 91c57 33 96 94 96 165 0 106-86 192-192 192z m64-416l-128 0 0 32 128 0z m0 77l0-13-128 0 0 13c-56 25-96 81-96 147 0 88 72 160 160 160 88 0 160-72 160-160 0-66-40-122-96-147z"/>
<glyph unicode="&#57462;" d="M448 256l-192 256-192-256 128 0-128-160 160 0 0-96 64 0 0 96 160 0-128 160z m-64-128l-256 0 112 140 0 20-112 0 128 176 128-176-112 0 0-20z"/>
<glyph unicode="&#57463;" d="M96 192l96 0 0 32-96 0z m411 124l-239 191c-3 3-8 5-12 5-5 0-9-2-12-5l-239-191c-7-7-7-17 0-23 6-7 16-7 23 0l4 3 0-264c0-18 15-32 32-32l383 0c18 0 32 14 32 32l0 264 5-3c6-7 17-7 23 0 6 6 6 16 0 23z m-155-284l-96 0 0 160 96 0 0-160z m95 16c0-9-7-16-16-16l-47 0 0 192-160 0 0-192-144 0c-9 0-16 7-16 16l0 274 192 153 191-153 0-274z m-255 272c0-36 29-64 64-64 36 0 65 28 65 64 0 35-29 64-65 64-35 0-64-29-64-64z m64 32c18 0 33-15 33-32 0-18-15-32-33-32-18 0-32 14-32 32 0 17 14 32 32 32z m-160-224l96 0 0 32-96 0z"/>
<glyph unicode="&#57464;" d="M256 416c-53 0-96-43-96-96 0-53 43-96 96-96 53 0 96 43 96 96 0 53-43 96-96 96z m0-160c-35 0-64 29-64 64 0 35 29 64 64 64 35 0 64-29 64-64 0-35-29-64-64-64z m0 256c-106 0-192-86-192-192 0-106 192-320 192-320 0 0 192 214 192 320 0 106-86 192-192 192z m-160-192c0 88 72 160 160 160 88 0 160-72 160-160 0-88-160-272-160-272 0 0-160 184-160 272z"/>
<glyph unicode="&#57465;" d="M352 421l0 91-192 0 0-91c-57-33-96-94-96-165 0-71 39-132 96-165l0-91 192 0 0 91c57 33 96 94 96 165 0 71-39 132-96 165z m-160 59l128 0 0-44c-20 7-41 12-64 12-23 0-44-5-64-12z m128-448l-128 0 0 44c20-7 41-12 64-12 23 0 44 5 64 12z m-64 64c-88 0-160 72-160 160 0 88 72 160 160 160 88 0 160-72 160-160 0-88-72-160-160-160z m80 160l-80 0 0 112c0 9-7 16-16 16-9 0-16-7-16-16l0-128c0-9 7-16 16-16l96 0c9 0 16 7 16 16 0 9-7 16-16 16z"/>
<glyph unicode="&#57466;" d="M192 288l116 0-98-169c-4-7-2-17 6-21 7-4 17-2 22 6l112 192c0 1 0 1 0 1 1 1 1 1 1 2 2 6 1 12-4 16 0 0 0 0 0 1-1 0-2 1-3 2 0 0-1 0-1 0-1 1-1 1-2 1-1 0-3 1-4 1 0 0-1 0-1 0l-144 0c-9 0-16-7-16-16 0-9 7-16 16-16z m288 224l-448 0c-18 0-32-14-32-32l0-448c0-18 14-32 32-32l448 0c18 0 32 14 32 32l0 448c0 18-14 32-32 32z m0-464c0-9-7-16-16-16l-416 0c-9 0-16 7-16 16l0 336 448 0z m0 368l-448 0 0 48c0 9 7 16 16 16l416 0c9 0 16-7 16-16z"/>
<glyph unicode="&#57467;" d="M272 128c-9 0-16-7-16-16l0-32c0-9 7-16 16-16 9 0 16 7 16 16l0 32c0 9-7 16-16 16z m-96 96l-32 0c-9 0-16-7-16-16 0-9 7-16 16-16l32 0c9 0 16 7 16 16 0 9-7 16-16 16z m32 256l48 0 0-32c0-9 7-16 16-16 9 0 16 7 16 16l0 32 48 0c9 0 16 7 16 16 0 9-7 16-16 16l-128 0c-9 0-16-7-16-16 0-9 7-16 16-16z m192-256l-32 0c-9 0-16-7-16-16 0-9 7-16 16-16l32 0c9 0 16 7 16 16 0 9-7 16-16 16z m-128 128c-9 0-16-7-16-16l0-32c0-9 7-16 16-16 9 0 16 7 16 16l0 32c0 9-7 16-16 16z m0 64c-115 0-208-93-208-208 0-115 93-208 208-208 115 0 208 93 208 208 0 115-93 208-208 208z m0-384c-97 0-176 79-176 176 0 97 79 176 176 176 97 0 176-79 176-176 0-97-79-176-176-176z"/>
<glyph unicode="&#57468;" d="M32 432c0 26 21 48 48 48 7 0 14-2 21-5l23 23c-13 9-28 14-44 14-44 0-80-36-80-80 0-17 5-33 15-46l23 24c-4 6-6 14-6 22z m336-176l-112 0 0 112c0 8-7 16-16 16-9 0-16-8-16-16l0-128c0 0 0 0 0 0 0-4 1-7 3-9 3-4 8-7 13-7 0 0 0 0 1 0l127 0c9 0 16 7 16 16 0 9-7 16-16 16z m-112 224c-124 0-224-101-224-224 0-89 52-164 126-201l-26-32c-6-8-2-17 8-21 10-4 22-2 28 5l27 34c19-5 40-9 61-9 21 0 42 4 61 9l27-34c6-7 18-9 28-5 10 4 14 13 8 21l-26 32c74 37 126 112 126 201 0 123-100 224-224 224z m0-416c-106 0-192 86-192 192 0 106 86 192 192 192 106 0 192-86 192-192 0-106-86-192-192-192z m176 448c-7 0-14-2-21-4l29-30c20-4 36-19 39-40l29-30c2 7 4 15 4 24 0 44-36 80-80 80z"/>
<glyph unicode="&#57469;" d="M432 32l-48 0 0 144c0 0 0 0 0 0 0 1 0 2-1 2-1 8-103 78-103 78 0 0 102 70 103 78 1 0 1 1 1 2 0 0 0 0 0 0l0 144 48 0c9 0 16 7 16 16 0 9-7 16-16 16l-352 0c-9 0-16-7-16-16 0-9 7-16 16-16l48 0 0-144c0 0 0 0 0 0 0-1 0-2 0-2 2-8 104-78 104-78 0 0-102-70-104-78 0 0 0-1 0-2 0 0 0 0 0 0l0-144-48 0c-9 0-16-7-16-16 0-9 7-16 16-16l352 0c9 0 16 7 16 16 0 9-7 16-16 16z m-272 310l0 138 192 0 0-138-96-69z m192-310l-192 0 0 138 96 69 96-69z"/>
<glyph unicode="&#57470;" d="M160 128l32 0 0 32-32 0z m-64 96l32 0 0 32-32 0z m288 160l-32 0 0-32 32 0z m-224-32l32 0 0 32-32 0z m96-288l32 0 0 32-32 0z m32 352l-32 0 0-192 160 0 0 32-128 0z m64-288l32 0 0 32-32 0z m-80 352c-133 0-240-107-240-240 0-133 107-240 240-240 133 0 240 107 240 240 0 133-107 240-240 240z m0-448c-115 0-208 93-208 208 0 115 93 208 208 208 115 0 208-93 208-208 0-115-93-208-208-208z"/>
<glyph unicode="&#57471;" d="M416 160l-96 0 0-96 96 0z m-32-64l-32 0 0 32 32 0z m32 192l-96 0 0-96 96 0z m-32-64l-32 0 0 32 32 0z m80 256l-112 0 0 32-32 0 0-32-160 0 0 32-32 0 0-32-96 0c-18 0-32-14-32-32l0-416c0-18 14-32 32-32l416 0c18 0 32 14 32 32l0 416c0 18 2 32-16 32z m-16-432c0-9-7-16-16-16l-384 0c-9 0-16 7-16 16l0 304 416 0z m0 336l-416 0 0 48c0 9 7 16 16 16l80 0 0-32 32 0 0 32 160 0 0-32 32 0 0 32 80 0c9 0 16-7 16-16z m-288-224l-96 0 0-96 96 0z m-32-64l-32 0 0 32 32 0z m160 64l-96 0 0-96 96 0z m-32-64l-32 0 0 32 32 0z m-96 192l-96 0 0-96 96 0z m-32-64l-32 0 0 32 32 0z m160 64l-96 0 0-96 96 0z m-32-64l-32 0 0 32 32 0z"/>
<glyph unicode="&#57472;" d="M272 320c-9 0-16-7-16-16l0-176c0-9 7-16 16-16 9 0 16 7 16 16l0 176c0 9-7 16-16 16z m-128 48c-9 0-16-7-16-16l0-208c0-9 7-16 16-16 9 0 16 7 16 16l0 208c0 9-7 16-16 16z m240-192c0-9 7-16 16-16 9 0 16 7 16 16l0 208c0 9-7 16-16 16-9 0-16-7-16-16z m0 304l-112-96-144 64-128-64 0-384 128 64 144-32 112 64 128-64 0 368z m96-400l-96 48-112-64-144 32-96-48 0 320 96 48 144-64 112 96 96-64z"/>
<glyph unicode="&#57473;" d="M288 480c-106 0-192-86-192-192 0-106 192-320 192-320 0 0 192 214 192 320 0 106-86 192-192 192z m-160-200c0 93 72 168 160 168 88 0 160-75 160-168 0-93-160-280-160-280 0 0-160 187-160 280z m160 104c-35 0-64-29-64-64 0-35 29-64 64-64 35 0 64 29 64 64 0 35-29 64-64 64z m0-96c-18 0-32 14-32 32 0 18 14 32 32 32 18 0 32-14 32-32 0-18-14-32-32-32z"/>
<glyph unicode="&#57474;" d="M256 512c-141 0-256-115-256-256 0-141 115-256 256-256 141 0 256 115 256 256 0 141-115 256-256 256z m0-480c-124 0-224 100-224 224 0 124 100 224 224 224 124 0 224-100 224-224 0-124-100-224-224-224z m-128 96l171 85 85 171-171-86z m203 202l-46-82-36 37z m-67-103l-83-46 46 82z"/>
<glyph unicode="&#57475;" d="M368 256l-75 108c16 11 27 30 27 52 0 35-29 64-64 64-35 0-64-29-64-64 0-22 11-41 27-52l-75-108-112 96 0-320 448 0 0 320z m-112 192c18 0 32-14 32-32 0-18-14-32-32-32-18 0-32 14-32 32 0 18 14 32 32 32z m192-384l-384 0 0 32 384 0z m0 64l-384 0 0 154 86-73 20 29 81 114c1 0 3 0 5 0 2 0 4 0 5 1l101-144 86 73z"/>
<glyph unicode="&#57476;" d="M400 385l64 0c9 0 16 7 16 16 0 9-7 16-16 16l-64 0c-9 0-16-7-16-16 0-9 7-16 16-16z m80-161l-128 37 0 124c0 35-29 64-64 64-35 0-64-29-64-64l0-196-16 16c-26 26-67 26-93 0-26-25-26-67 0-93l93-93c13-12 30-19 46-19 1 0 1 0 2 0l224 0c18 0 32 14 32 32l0 160c0 18-14 32-32 32z m0-176c0-9-7-16-16-16l-192 0c-3 0-32 2-41 11l-93 93c-13 13-13 33 0 46 13 13 34 13 47 0l71-71 0 274c0 17 14 32 32 32 18 0 32-15 32-32l0-129c0-5 0-16 0-16l144-48c9 0 16-7 16-16z m-389 299l-37 38 122 0c9 0 16 7 16 16 0 9-7 16-16 16l-122 0 37 38c6 6 6 15 0 21-6 6-15 6-21 0l-63-63c-1 0-1 0-2 0 0-1 0-1 0-1-1 0-1 0-1-1-2-2-4-6-4-9 0-1 0-1 0-1 0 0 0 0 0 0 0 0 0-1 0-1 0 0 0 0 0-1 1-3 2-5 4-7 0-1 0-2 1-3 0 0 1 0 2-1 0 0 0 0 0 0l63-63c6-6 15-6 21 0 6 6 6 16 0 22z"/>
<glyph unicode="&#57477;" d="M48 385l64 0c9 0 16 7 16 16 0 9-7 16-16 16l-64 0c-9 0-16-7-16-16 0-9 7-16 16-16z m464 16c0 0 0 1 0 1 0 3-2 7-4 9 0 1 0 1-1 1 0 0 0 0 0 1-1 0-1 0-2 0l-63 63c-6 6-15 6-21 0-6-6-6-15 0-21l37-38-122 0c-9 0-16-7-16-16 0-9 7-16 16-16l122 0-37-38c-6-6-6-16 0-22 6-6 15-6 21 0l63 63c0 0 0 0 0 0 1 1 2 1 2 1 1 1 1 2 1 2 2 3 3 5 4 8 0 1 0 1 0 1 0 1 0 1 0 1 0 0 0 0 0 0z m-96-177l-128 37 0 124c0 35-29 64-64 64-35 0-64-29-64-64l0-196-16 16c-26 26-67 26-93 0-26-25-26-67 0-93l93-93c13-12 30-19 46-19 1 0 1 0 2 0l224 0c18 0 32 14 32 32l0 160c0 18-14 32-32 32z m0-176c0-9-7-16-16-16l-192 0c-3 0-32 2-41 11l-93 93c-13 13-13 33 0 46 13 13 34 13 47 0l71-71 0 274c0 17 14 32 32 32 18 0 32-15 32-32l0-129c0-5 0-16 0-16l144-48c9 0 16-7 16-16z"/>
<glyph unicode="&#57478;" d="M448 256l-128 37 0 123c0 35-29 64-64 64-35 0-64-29-64-64l0-195-16 16c-26 26-67 26-93 0-26-26-26-67 0-93l93-93c13-12 30-19 46-19 1 0 1 0 2 0l224 0c18 0 32 14 32 32l0 160c0 18-14 32-32 32z m0-176c0-9-7-16-16-16l-192 0c0 0-32 2-41 11l-93 92c-13 13-13 34 0 47 13 13 34 13 47-1l72-71-1 146 0 128c0 18 14 32 32 32 18 0 32-14 32-32l0-128c0-5 0-16 0-16l144-48c9 0 16-7 16-16z"/>
<glyph unicode="&#57479;" d="M501 283l-53 53c35 11 61 45 61 84 0 48-40 88-88 88-39 0-72-26-84-61l-54 54c-15 15-40 15-54 0l-75-74c-5-5-6-13-2-19 3-6 10-10 16-8 5 0 9 1 12 1 35 0 61-29 61-64 0-35-26-64-61-64-35 0-63 29-63 64 0 4 0 7 1 12 1 7-2 14-9 17-6 3-13 2-18-3l-80-80c-15-15-15-39 0-54l218-218c7-7 17-11 27-11 10 0 19 4 27 11l218 218c14 15 14 39 0 54z m-23-31l-218-218c-3-3-5-3-9 0l-217 218c-3 2-3 6-1 8l54 54c11-41 48-73 93-73 53 0 93 44 93 96 0 45-28 83-70 93l48 49c4 3 6 3 9 0l78-79c5-5 12-6 19-3 6 3 9 9 9 16l-1 3c0 1 0 2 0 4 0 31 25 56 56 56 31 0 56-25 56-56 0-31-25-56-56-56-2 0-3 0-4 0l-3 1c-7 0-13-3-16-9-3-6-2-14 3-19l77-77c2-2 2-6 0-8z"/>
<glyph unicode="&#57480;" d="M448 336c0 97-79 176-176 176-97 0-176-79-176-176 0-92 70-166 160-174l0-66-64 0c-9 0-16-7-16-16 0-9 7-16 16-16l64 0 0-48c0-9 7-16 16-16 9 0 16 7 16 16l0 48 64 0c9 0 16 7 16 16 0 9-7 16-16 16l-64 0 0 66c90 8 160 82 160 174z m-176-144c-80 0-144 64-144 144 0 79 64 144 144 144 80 0 144-65 144-144 0-80-65-144-144-144z"/>
<glyph unicode="&#57481;" d="M512 465c0 0 0 0 0 0-1 4-2 7-4 9-1 1 0 1-1 2 0 0-1 0-2 1-3 2-6 3-10 3l-132 0c-9 0-16-7-16-16 0-9 7-16 16-16l93 0-150-145c-32 30-76 49-124 49-101 0-182-79-182-176 0-97 81-176 182-176 100 0 181 79 181 176 0 39-13 75-35 104l151 147 0-91c0-9 7-16 17-16 9 0 16 7 16 16l0 128c0 0 0 0 0 1z m-182-289c0-80-66-144-148-144-82 0-149 64-149 144 0 79 67 144 149 144 82 0 148-65 148-144z"/>
<glyph unicode="&#57482;" d="M480 305c0 84-43 161-117 205-7 4-17 2-21-6-5-8-2-17 5-22 64-38 102-104 102-177 0-121-87-209-206-209-26 0-52 5-77 15-8 3-17-1-20-9-3-8 1-17 9-21 28-11 57-17 88-17 5 0 9 0 13 0l0-32-46 0c-9 0-17-7-17-16 0-9 8-16 17-16l126 0c9 0 17 7 17 16 0 9-8 16-17 16l-48 0 0 36c114 19 192 113 192 237z m-64-2c0 97-79 177-176 177-97 0-176-80-176-177 0-97 79-176 176-176 97 0 176 79 176 176z m-320 0c0 80 65 145 144 145 79 0 144-65 144-145 0-79-65-144-144-144-79 0-144 65-144 144z"/>
<glyph unicode="&#57483;" d="M472 370l-186 103c-21 10-6 12-29 0l-185-103c-10-10-8-45-8-50l0-176c0-18 21-21 32-32l160-112c6 0 26 0 32 0l176 112c14 9 16 14 16 32l0 176c0 5 2 40-8 50z m-216-338l-167 110 0 182 167-105 0-187z m202 108l-170-108 0 187 170 107z m-10 212l-170-103c-2-1-4-2-6-3-2 1-3 2-5 3l-171 103 176 99 176-99z"/>
<glyph unicode="&#57484;" d="M448 512l-384 0c-35 0-64-29-64-64l0-384c0-35 29-64 64-64l448 0 0 512z m-320-32l128 0 0-192-64 37-64-37z m352-448l-416 0c-18 0-32 14-32 32 0 18 14 32 32 32l416 0z m0 416l0-320-416 0c-12 0-23-3-32-9l0 329c0 18 14 32 32 32l32 0 0-256 96 64 96-64 0 256 192 0z"/>
<glyph unicode="&#57485;" d="M432 352l-192 0c-9 0-16-7-16-16 0-9 7-16 16-16l192 0c9 0 16 7 16 16 0 9-7 16-16 16z m48 128l-32 0 0 32-32 0 0-32-64 0 0 32-32 0 0-32-64 0 0 32-32 0 0-32-32 0c-18 0-32-14-32-32l0-416c0-18 14-32 32-32l288 0c18 0 32 14 32 32l0 416c0 18-14 32-32 32z m0-432c0-9-7-16-16-16l-256 0c-9 0-16 7-16 16l0 384c0 9 7 16 16 16l256 0c9 0 16-7 16-16z m-384 464l-64 0c-18 0-32-14-32-32l0-448c0-18 14-32 32-32l64 0c18 0 32 14 32 32l0 448c0 18-14 32-32 32z m0-464c0-9-7-16-16-16l-32 0c-9 0-16 7-16 16l0 208 64 0z m0 240l-64 0 0 176c0 9 7 16 16 16l32 0c9 0 16-7 16-16z m336-128l-192 0c-9 0-16-7-16-16 0-9 7-16 16-16l192 0c9 0 16 7 16 16 0 9-7 16-16 16z m0 96l-192 0c-9 0-16-7-16-16 0-9 7-16 16-16l192 0c9 0 16 7 16 16 0 9-7 16-16 16z"/>
<glyph unicode="&#57486;" d="M416 448l-288 0c-18 0-32-14-32-32l0-288c0-18 14-32 32-32l288 0c18 0 32 14 32 32l0 288c0 18-14 32-32 32z m0-304c0-9-7-16-16-16l-256 0c-9 0-16 7-16 16l0 0c4 0 9 2 12 5l68 81 53-65c6-7 16-7 22 0 0 0 0 0 0 0 1 0 1 0 1 0l70 112 48-61c3-5 8-7 14-7l0-65z m0 105l-50 63c-1 1-2 1-3 2 0 1 0 1 0 1-1 1-2 1-3 1-2 2-4 3-6 3-3 1-5 0-8-1-1 0-1 0-2 0-1 0-1-1-1-1-1-1-3-1-4-2l-69-111-51 63c-3 4-7 5-11 5-5 0-9-1-13-5l-67-81 0 214c0 9 7 16 16 16l256 0c9 0 16-7 16-16z m64 263l-416 0c-18 0-32-14-32-32l0-448c0-18 14-32 32-32l416 0c18 0 32 14 32 32l0 448c0 18-14 32-32 32z m0-464c0-9-7-16-16-16l-384 0c-9 0-16 7-16 16l0 416c0 9 7 16 16 16l384 0c9 0 16-7 16-16z"/>
<glyph unicode="&#57487;" d="M112 288c26 0 48 21 48 48 0 26-22 48-48 48-27 0-48-22-48-48 0-27 21-48 48-48z m-1 63c8 0 16-7 16-16 0-9-8-16-16-16-9 0-16 7-16 16 0 9 7 16 16 16z m244-68l-86-130-96 82c-4 4-8 5-13 5-5 0-9-1-13-5l-78-126c-7-7-7-17 0-24 6-6 17-6 23 0l71 115 97-83c3-3 8-5 12-5 4 0 9 2 12 5l95 143c6 6 6 17 0 23-7 7-17 7-24 0z m141 229l-416 0c-9 0-16-7-16-16 0-9 7-16 16-16l400 0 0-400c0-9 7-16 16-16 9 0 16 7 16 16l0 416c0 9-7 16-16 16z m-80-64l-384 0c-18 0-32-14-32-32l0-384c0-18 14-32 32-32l384 0c18 0 32 14 32 32l0 384c0 18-14 32-32 32z m0-400c0-9-7-16-16-16l-352 0c-9 0-16 7-16 16l0 352c0 9 7 16 16 16l352 0c9 0 16-7 16-16z"/>
<glyph unicode="&#57488;" d="M144 416c-27 0-48-22-48-48 0-27 21-48 48-48 26 0 48 21 48 48 0 26-22 48-48 48z m-1-65c-9 0-16 7-16 16 0 9 7 16 16 16 9 0 16-7 16-16 0-9-7-16-16-16z m337 161l-448 0c-18 0-32-14-32-32l0-448c0-18 14-32 32-32l448 0c18 0 32 14 32 32l0 448c0 18-14 32-32 32z m0-464c0-9-7-16-16-16l-416 0c-9 0-16 7-16 16l0 48 448 0z m0 80l-366 0 97 122 113-85c3-3 8-5 12-5 4 0 9 2 12 5l132 212z m0 310l-148-238-111 83c-4 4-8 5-13 5-5 0-9-1-13-5l-124-155-39 0 0 336c0 9 7 16 16 16l416 0c9 0 16-7 16-16z"/>
<glyph unicode="&#57489;" d="M32 64l0 352-32 0 0-352c0-35 30-64 68-64l379 0 0 32-381 0c-19 0-34 14-34 32z m400 384l-288 0c-9 0-16-7-16-16l0-256c0-9 7-16 16-16l288 0c8 0 16 7 16 16l0 256c0 9-8 16-16 16z m-16-240c0-9-8-16-16-16l-224 0c-9 0-16 7-16 16l0 192c0 9 7 16 16 16l224 0c8 0 16-7 16-16l0-192z m64 304l-384 0c-18 0-32-14-32-32l0-384c0-18 14-32 32-32l384 0c17 0 31 14 31 32l0 384c0 18-14 32-31 32z m0-400c0-9-8-16-16-16l-352 0c-9 0-16 7-16 16l0 352c0 9 7 16 16 16l352 0c8 0 16-7 16-16l0-352z"/>
<glyph unicode="&#57490;" d="M496 384l-112-70 0 38c0 35-29 64-64 64l-256 0c-35 0-64-29-64-64l0-192c0-35 29-64 64-64l256 0c35 0 64 29 64 64l0 38 112-70c9 0 16 7 16 16l0 224c0 9-7 16-16 16z m-144-96l0-128c0-18-14-32-32-32l-256 0c-18 0-32 14-32 32l0 192c0 18 14 32 32 32l256 0c18 0 32-14 32-32z m128-112l-96 48 0 64 96 48z"/>
</font>
</defs>
</svg>
